  0
SECTION
  2
HEADER
  9
$ACADVER
  1
AC1018
  9
$ACADMAINTVER
 70
     0
  9
$DWGCODEPAGE
  3
ANSI_1252
  9
$INSBASE
 10
0.0
 20
0.0
 30
0.0
  9
$EXTMIN
 10
-415.499999999989
 20
-267.0000000000051
 30
0.0
  9
$EXTMAX
 10
-118.4999999999909
 20
-57.000000000005
 30
0.0
  9
$LIMMIN
 10
0.0
 20
0.0
  9
$LIMMAX
 10
12.0
 20
9.0
  9
$ORTHOMODE
 70
     0
  9
$REGENMODE
 70
     1
  9
$FILLMODE
 70
     1
  9
$QTEXTMODE
 70
     0
  9
$MIRRTEXT
 70
     1
  9
$LTSCALE
 40
1.0
  9
$ATTMODE
 70
     1
  9
$TEXTSIZE
 40
0.2
  9
$TRACEWID
 40
0.05
  9
$TEXTSTYLE
  7
Standard
  9
$CLAYER
  8
0
  9
$CELTYPE
  6
ByLayer
  9
$CECOLOR
 62
   256
  9
$CELTSCALE
 40
1.0
  9
$DISPSILH
 70
     0
  9
$DIMSCALE
 40
1.0
  9
$DIMASZ
 40
0.18
  9
$DIMEXO
 40
0.0625
  9
$DIMDLI
 40
0.38
  9
$DIMRND
 40
0.0
  9
$DIMDLE
 40
0.0
  9
$DIMEXE
 40
0.18
  9
$DIMTP
 40
0.0
  9
$DIMTM
 40
0.0
  9
$DIMTXT
 40
0.18
  9
$DIMCEN
 40
0.09
  9
$DIMTSZ
 40
0.0
  9
$DIMTOL
 70
     0
  9
$DIMLIM
 70
     0
  9
$DIMTIH
 70
     1
  9
$DIMTOH
 70
     1
  9
$DIMSE1
 70
     0
  9
$DIMSE2
 70
     0
  9
$DIMTAD
 70
     0
  9
$DIMZIN
 70
     0
  9
$DIMBLK
  1

  9
$DIMASO
 70
     1
  9
$DIMSHO
 70
     1
  9
$DIMPOST
  1

  9
$DIMAPOST
  1

  9
$DIMALT
 70
     0
  9
$DIMALTD
 70
     2
  9
$DIMALTF
 40
25.4
  9
$DIMLFAC
 40
1.0
  9
$DIMTOFL
 70
     0
  9
$DIMTVP
 40
0.0
  9
$DIMTIX
 70
     0
  9
$DIMSOXD
 70
     0
  9
$DIMSAH
 70
     0
  9
$DIMBLK1
  1

  9
$DIMBLK2
  1

  9
$DIMSTYLE
  2
Standard
  9
$DIMCLRD
 70
     0
  9
$DIMCLRE
 70
     0
  9
$DIMCLRT
 70
     0
  9
$DIMTFAC
 40
1.0
  9
$DIMGAP
 40
0.09
  9
$DIMJUST
 70
     0
  9
$DIMSD1
 70
     0
  9
$DIMSD2
 70
     0
  9
$DIMTOLJ
 70
     1
  9
$DIMTZIN
 70
     0
  9
$DIMALTZ
 70
     0
  9
$DIMALTTZ
 70
     0
  9
$DIMUPT
 70
     0
  9
$DIMDEC
 70
     4
  9
$DIMTDEC
 70
     4
  9
$DIMALTU
 70
     2
  9
$DIMALTTD
 70
     2
  9
$DIMTXSTY
  7
Standard
  9
$DIMAUNIT
 70
     0
  9
$DIMADEC
 70
     0
  9
$DIMALTRND
 40
0.0
  9
$DIMAZIN
 70
     0
  9
$DIMDSEP
 70
    46
  9
$DIMATFIT
 70
     3
  9
$DIMFRAC
 70
     0
  9
$DIMLDRBLK
  1

  9
$DIMLUNIT
 70
     2
  9
$DIMLWD
 70
    -2
  9
$DIMLWE
 70
    -2
  9
$DIMTMOVE
 70
     0
  9
$LUNITS
 70
     2
  9
$LUPREC
 70
     4
  9
$SKETCHINC
 40
0.1
  9
$FILLETRAD
 40
0.5
  9
$AUNITS
 70
     0
  9
$AUPREC
 70
     0
  9
$MENU
  1
.
  9
$ELEVATION
 40
0.0
  9
$PELEVATION
 40
0.0
  9
$THICKNESS
 40
0.0
  9
$LIMCHECK
 70
     0
  9
$CHAMFERA
 40
0.5
  9
$CHAMFERB
 40
0.5
  9
$CHAMFERC
 40
1.0
  9
$CHAMFERD
 40
0.0
  9
$SKPOLY
 70
     0
  9
$TDCREATE
 40
2458157.877466759
  9
$TDUCREATE
 40
2458157.835800093
  9
$TDUPDATE
 40
2458157.877467488
  9
$TDUUPDATE
 40
2458157.835800822
  9
$TDINDWG
 40
0.0000000116
  9
$TDUSRTIMER
 40
0.0000000116
  9
$USRTIMER
 70
     1
  9
$ANGBASE
 50
0.0
  9
$ANGDIR
 70
     0
  9
$PDMODE
 70
     0
  9
$PDSIZE
 40
0.0
  9
$PLINEWID
 40
0.0
  9
$SPLFRAME
 70
     0
  9
$SPLINETYPE
 70
     6
  9
$SPLINESEGS
 70
     8
  9
$HANDSEED
  5
464
  9
$SURFTAB1
 70
     6
  9
$SURFTAB2
 70
     6
  9
$SURFTYPE
 70
     6
  9
$SURFU
 70
     6
  9
$SURFV
 70
     6
  9
$UCSBASE
  2

  9
$UCSNAME
  2

  9
$UCSORG
 10
0.0
 20
0.0
 30
0.0
  9
$UCSXDIR
 10
1.0
 20
0.0
 30
0.0
  9
$UCSYDIR
 10
0.0
 20
1.0
 30
0.0
  9
$UCSORTHOREF
  2

  9
$UCSORTHOVIEW
 70
     0
  9
$UCSORGTOP
 10
0.0
 20
0.0
 30
0.0
  9
$UCSORGBOTTOM
 10
0.0
 20
0.0
 30
0.0
  9
$UCSORGLEFT
 10
0.0
 20
0.0
 30
0.0
  9
$UCSORGRIGHT
 10
0.0
 20
0.0
 30
0.0
  9
$UCSORGFRONT
 10
0.0
 20
0.0
 30
0.0
  9
$UCSORGBACK
 10
0.0
 20
0.0
 30
0.0
  9
$PUCSBASE
  2

  9
$PUCSNAME
  2

  9
$PUCSORG
 10
0.0
 20
0.0
 30
0.0
  9
$PUCSXDIR
 10
1.0
 20
0.0
 30
0.0
  9
$PUCSYDIR
 10
0.0
 20
1.0
 30
0.0
  9
$PUCSORTHOREF
  2

  9
$PUCSORTHOVIEW
 70
     0
  9
$PUCSORGTOP
 10
0.0
 20
0.0
 30
0.0
  9
$PUCSORGBOTTOM
 10
0.0
 20
0.0
 30
0.0
  9
$PUCSORGLEFT
 10
0.0
 20
0.0
 30
0.0
  9
$PUCSORGRIGHT
 10
0.0
 20
0.0
 30
0.0
  9
$PUCSORGFRONT
 10
0.0
 20
0.0
 30
0.0
  9
$PUCSORGBACK
 10
0.0
 20
0.0
 30
0.0
  9
$USERI1
 70
     0
  9
$USERI2
 70
     0
  9
$USERI3
 70
     0
  9
$USERI4
 70
     0
  9
$USERI5
 70
     0
  9
$USERR1
 40
18.1
  9
$USERR2
 40
0.0
  9
$USERR3
 40
0.0
  9
$USERR4
 40
0.0
  9
$USERR5
 40
0.0
  9
$WORLDVIEW
 70
     1
  9
$SHADEDGE
 70
     3
  9
$SHADEDIF
 70
    70
  9
$TILEMODE
 70
     1
  9
$MAXACTVP
 70
    64
  9
$PINSBASE
 10
0.0
 20
0.0
 30
0.0
  9
$PLIMCHECK
 70
     0
  9
$PEXTMIN
 10
1.00000000000000E+20
 20
1.00000000000000E+20
 30
1.00000000000000E+20
  9
$PEXTMAX
 10
-1.00000000000000E+20
 20
-1.00000000000000E+20
 30
-1.00000000000000E+20
  9
$PLIMMIN
 10
0.0
 20
0.0
  9
$PLIMMAX
 10
12.0
 20
9.0
  9
$UNITMODE
 70
     0
  9
$VISRETAIN
 70
     1
  9
$PLINEGEN
 70
     0
  9
$PSLTSCALE
 70
     1
  9
$TREEDEPTH
 70
  3020
  9
$CMLSTYLE
  2
Standard
  9
$CMLJUST
 70
     0
  9
$CMLSCALE
 40
1.0
  9
$PROXYGRAPHICS
 70
     1
  9
$MEASUREMENT
 70
     1
  9
$CELWEIGHT
370
    -1
  9
$ENDCAPS
280
     0
  9
$JOINSTYLE
280
     0
  9
$LWDISPLAY
290
     0
  9
$INSUNITS
 70
     4
  9
$HYPERLINKBASE
  1

  9
$STYLESHEET
  1

  9
$XEDIT
290
     1
  9
$CEPSNTYPE
380
     0
  9
$PSTYLEMODE
290
     1
  9
$FINGERPRINTGUID
  2
{BEF2D2B0-5BB2-49C4-88B6-38C0A33AA665}
  9
$VERSIONGUID
  2
{FAEB1C32-E019-11D5-929B-00C0DF256EC4}
  9
$EXTNAMES
290
     1
  9
$PSVPSCALE
 40
0.0
  9
$OLESTARTUP
290
     0
  9
$SORTENTS
280
   127
  9
$INDEXCTL
280
     0
  9
$HIDETEXT
280
     1
  9
$XCLIPFRAME
290
     0
  9
$HALOGAP
280
     0
  9
$OBSCOLOR
 70
   257
  9
$OBSLTYPE
280
     0
  9
$INTERSECTIONDISPLAY
280
     0
  9
$INTERSECTIONCOLOR
 70
   257
  9
$DIMASSOC
280
     2
  9
$PROJECTNAME
  1

  0
ENDSEC
  0
SECTION
  2
CLASSES
  0
CLASS
  1
ACDBDICTIONARYWDFLT
  2
AcDbDictionaryWithDefault
  3
ObjectDBX Classes
 90
        0
 91
        4
280
     0
281
     0
  0
CLASS
  1
VISUALSTYLE
  2
AcDbVisualStyle
  3
ObjectDBX Classes
 90
     4095
 91
        4
280
     0
281
     0
  0
CLASS
  1
MATERIAL
  2
AcDbMaterial
  3
ObjectDBX Classes
 90
     1153
 91
        4
280
     0
281
     0
  0
ENDSEC
  0
SECTION
  2
TABLES
  0
TABLE
  2
VPORT
  5
8
330
0
100
AcDbSymbolTable
 70
     1
  0
VPORT
  5
29
330
8
100
AcDbSymbolTableRecord
100
AcDbViewportTableRecord
  2
*Active
 70
     0
 10
0.0
 20
0.0
 11
1.0
 21
1.0
 12
-266.9999999999899
 22
-162.0000000000051
 13
0.0
 23
0.0
 14
0.5
 24
0.5
 15
0.5
 25
0.5
 16
0.0
 26
0.0
 36
1.0
 17
0.0
 27
0.0
 37
0.0
 40
231.0000000000001
 41
1.60267857142857
 42
50.0
 43
0.0
 44
0.0
 50
0.0
 51
0.0
 71
     0
 72
   100
 73
     1
 74
     3
 75
     0
 76
     0
 77
     0
 78
     0
281
     0
 65
     1
110
0.0
120
0.0
130
0.0
111
1.0
121
0.0
131
0.0
112
0.0
122
1.0
132
0.0
 79
     0
146
0.0
  0
ENDTAB
  0
TABLE
  2
LTYPE
  5
5
330
0
100
AcDbSymbolTable
 70
     8
  0
LTYPE
  5
14
330
5
100
AcDbSymbolTableRecord
100
AcDbLinetypeTableRecord
  2
ByBlock
 70
     0
  3

 72
    65
 73
     0
 40
0.0
  0
LTYPE
  5
15
330
5
100
AcDbSymbolTableRecord
100
AcDbLinetypeTableRecord
  2
ByLayer
 70
     0
  3

 72
    65
 73
     0
 40
0.0
  0
LTYPE
  5
16
330
5
100
AcDbSymbolTableRecord
100
AcDbLinetypeTableRecord
  2
Continuous
 70
     0
  3
Solid line
 72
    65
 73
     0
 40
0.0
  0
LTYPE
  5
3F
330
5
100
AcDbSymbolTableRecord
100
AcDbLinetypeTableRecord
  2
DASHED
 70
     0
  3
Dashed
 72
    65
 73
     2
 40
15.0
 49
7.0
 74
     0
 49
-8.0
 74
     0
  0
LTYPE
  5
40
330
5
100
AcDbSymbolTableRecord
100
AcDbLinetypeTableRecord
  2
DOTTED
 70
     0
  3
Dotted
 72
    65
 73
     2
 40
1.0
 49
0.0
 74
     0
 49
-1.0
 74
     0
  0
LTYPE
  5
41
330
5
100
AcDbSymbolTableRecord
100
AcDbLinetypeTableRecord
  2
DOT_CENTER
 70
     0
  3
Dot_Center
 72
    65
 73
     4
 40
14.0
 49
12.0
 74
     0
 49
-1.0
 74
     0
 49
0.0
 74
     0
 49
-1.0
 74
     0
  0
LTYPE
  5
42
330
5
100
AcDbSymbolTableRecord
100
AcDbLinetypeTableRecord
  2
LONG_DASHED
 70
     0
  3
Long_Dashed
 72
    65
 73
     2
 40
15.0
 49
10.0
 74
     0
 49
-5.0
 74
     0
  0
LTYPE
  5
43
330
5
100
AcDbSymbolTableRecord
100
AcDbLinetypeTableRecord
  2
DASH_CENTER
 70
     0
  3
Dash_Center
 72
    65
 73
     4
 40
14.0
 49
11.0
 74
     0
 49
-1.0
 74
     0
 49
1.0
 74
     0
 49
-1.0
 74
     0
  0
LTYPE
  5
44
330
5
100
AcDbSymbolTableRecord
100
AcDbLinetypeTableRecord
  2
PHANTOM
 70
     0
  3
Phantom
 72
    65
 73
     6
 40
13.0
 49
10.0
 74
     0
 49
-1.0
 74
     0
 49
0.0
 74
     0
 49
-1.0
 74
     0
 49
0.0
 74
     0
 49
-1.0
 74
     0
  0
LTYPE
  5
45
330
5
100
AcDbSymbolTableRecord
100
AcDbLinetypeTableRecord
  2
CENTER_DASH_DASH
 70
     0
  3
Center_Dash_Dash
 72
    65
 73
     6
 40
14.0
 49
9.0
 74
     0
 49
-1.0
 74
     0
 49
1.0
 74
     0
 49
-1.0
 74
     0
 49
1.0
 74
     0
 49
-1.0
 74
     0
  0
ENDTAB
  0
TABLE
  2
LAYER
  5
2
330
0
100
AcDbSymbolTable
 70
     2
  0
LAYER
  5
10
330
2
100
AcDbSymbolTableRecord
100
AcDbLayerTableRecord
  2
0
 70
     0
 62
     7
  6
Continuous
370
    -3
390
F
  0
LAYER
  5
46
330
2
100
AcDbSymbolTableRecord
100
AcDbLayerTableRecord
  2
1
 70
     0
 62
     7
  6
Continuous
370
    -3
390
F
  0
ENDTAB
  0
TABLE
  2
STYLE
  5
3
330
0
100
AcDbSymbolTable
 70
     5
  0
STYLE
  5
11
330
3
100
AcDbSymbolTableRecord
100
AcDbTextStyleTableRecord
  2
Standard
 70
     0
 40
0.0
 41
1.0
 50
0.0
 71
     0
 42
0.2
  3
txt
  4

  0
STYLE
  5
119
330
3
100
AcDbSymbolTableRecord
100
AcDbTextStyleTableRecord
  2
CONVERTER_11
 70
     0
 40
0.0
 41
0.9
 50
0.0
 71
     0
 42
0.2
  3
txt.shx
  4

  0
STYLE
  5
3FF
330
3
100
AcDbSymbolTableRecord
100
AcDbTextStyleTableRecord
  2
CONVERTER_12
 70
     0
 40
0.0
 41
0.81
 50
0.0
 71
     0
 42
0.2
  3
txt.shx
  4

  0
STYLE
  5
415
330
3
100
AcDbSymbolTableRecord
100
AcDbTextStyleTableRecord
  2
CONVERTER_13
 70
     0
 40
0.0
 41
0.72
 50
0.0
 71
     0
 42
0.2
  3
txt.shx
  4

  0
STYLE
  5
418
330
3
100
AcDbSymbolTableRecord
100
AcDbTextStyleTableRecord
  2
CONVERTER_14
 70
     0
 40
0.0
 41
0.855
 50
0.0
 71
     0
 42
0.2
  3
txt.shx
  4

  0
ENDTAB
  0
TABLE
  2
VIEW
  5
6
330
0
100
AcDbSymbolTable
 70
     0
  0
ENDTAB
  0
TABLE
  2
UCS
  5
7
330
0
100
AcDbSymbolTable
 70
     0
  0
ENDTAB
  0
TABLE
  2
APPID
  5
9
330
0
100
AcDbSymbolTable
 70
     1
  0
APPID
  5
12
330
9
100
AcDbSymbolTableRecord
100
AcDbRegAppTableRecord
  2
ACAD
 70
     0
  0
ENDTAB
  0
TABLE
  2
DIMSTYLE
  5
A
330
0
100
AcDbSymbolTable
 70
     6
100
AcDbDimStyleTable
  0
DIMSTYLE
105
27
330
A
100
AcDbSymbolTableRecord
100
AcDbDimStyleTableRecord
  2
Standard
 70
     0
178
     0
340
11
  0
DIMSTYLE
105
1C1
102
{ACAD_REACTORS
330
1C2
102
}
330
A
100
AcDbSymbolTableRecord
100
AcDbDimStyleTableRecord
  2
ME10_DIM_10
 70
     0
 41
3.5
 42
0.0
 44
1.5
 73
     0
 74
     0
 77
     1
 78
     8
140
3.5
147
1.5
172
     1
173
     1
174
     1
175
     1
176
     2
177
     2
271
     2
178
     3
271
     2
340
119
  0
DIMSTYLE
105
2CC
102
{ACAD_REACTORS
330
2CD
102
}
330
A
100
AcDbSymbolTableRecord
100
AcDbDimStyleTableRecord
  2
ME10_DIM_11
 70
     0
 41
3.5
 42
0.0
 44
1.5
 73
     0
 74
     0
 77
     1
 78
     8
140
3.5
147
1.5
172
     1
173
     1
174
     1
175
     1
176
     2
177
     2
271
     2
178
     3
271
     2
340
119
  0
DIMSTYLE
105
2D7
102
{ACAD_REACTORS
330
2D8
102
}
330
A
100
AcDbSymbolTableRecord
100
AcDbDimStyleTableRecord
  2
ME10_DIM_12
 70
     0
 41
3.5
 42
0.0
 44
1.5
 73
     0
 74
     0
 77
     1
 78
     8
140
3.5
147
1.5
172
     1
173
     1
174
     1
175
     1
176
     2
177
     2
271
     2
178
     3
271
     2
340
119
  0
DIMSTYLE
105
2E2
102
{ACAD_REACTORS
330
2E3
102
}
330
A
100
AcDbSymbolTableRecord
100
AcDbDimStyleTableRecord
  2
ME10_DIM_13
 70
     0
 41
3.5
 42
0.0
 44
1.5
 73
     0
 74
     0
 77
     1
 78
     8
140
3.5
147
1.5
172
     1
173
     1
174
     1
175
     1
176
     2
177
     2
271
     2
178
     3
271
     2
340
119
  0
DIMSTYLE
105
2ED
102
{ACAD_REACTORS
330
2EE
102
}
330
A
100
AcDbSymbolTableRecord
100
AcDbDimStyleTableRecord
  2
ME10_DIM_14
 70
     0
 41
3.5
 42
0.0
 44
1.5
 73
     0
 74
     0
 77
     1
 78
     8
140
3.5
147
1.5
172
     1
173
     1
174
     1
175
     1
176
     2
177
     2
271
     2
178
     3
271
     2
340
119
  0
ENDTAB
  0
TABLE
  2
BLOCK_RECORD
  5
1
330
0
100
AcDbSymbolTable
 70
    24
  0
BLOCK_RECORD
  5
1F
330
1
100
AcDbSymbolTableRecord
100
AcDbBlockTableRecord
  2
*Model_Space
340
22
  0
BLOCK_RECORD
  5
1B
330
1
100
AcDbSymbolTableRecord
100
AcDbBlockTableRecord
  2
*Paper_Space
340
1E
  0
BLOCK_RECORD
  5
23
330
1
100
AcDbSymbolTableRecord
100
AcDbBlockTableRecord
  2
*Paper_Space0
340
26
  0
BLOCK_RECORD
  5
47
330
1
100
AcDbSymbolTableRecord
100
AcDbBlockTableRecord
  2
UK_10_3-HESI_1000V-select__1
340
0
102
{BLKREFS
331
4B
102
}
  0
BLOCK_RECORD
  5
4A
330
1
100
AcDbSymbolTableRecord
100
AcDbBlockTableRecord
  2
Allg1
340
0
102
{BLKREFS
331
7D
102
}
  0
BLOCK_RECORD
  5
4E
330
1
100
AcDbSymbolTableRecord
100
AcDbBlockTableRecord
  2
UK_10_3-HESI_1000V-select__2
340
0
102
{BLKREFS
331
52
102
}
  0
BLOCK_RECORD
  5
51
330
1
100
AcDbSymbolTableRecord
100
AcDbBlockTableRecord
  2
Drfsicht1
340
0
102
{BLKREFS
331
7E
102
}
  0
BLOCK_RECORD
  5
55
330
1
100
AcDbSymbolTableRecord
100
AcDbBlockTableRecord
  2
UK_10_3-HESI_1000V-select__3
340
0
102
{BLKREFS
331
59
102
}
  0
BLOCK_RECORD
  5
58
330
1
100
AcDbSymbolTableRecord
100
AcDbBlockTableRecord
  2
Rckans1
340
0
102
{BLKREFS
331
7F
102
}
  0
BLOCK_RECORD
  5
5C
330
1
100
AcDbSymbolTableRecord
100
AcDbBlockTableRecord
  2
UK_10_3-HESI_1000V-select__4
340
0
102
{BLKREFS
331
60
102
}
  0
BLOCK_RECORD
  5
5F
330
1
100
AcDbSymbolTableRecord
100
AcDbBlockTableRecord
  2
SA_Links1
340
0
102
{BLKREFS
331
80
102
}
  0
BLOCK_RECORD
  5
63
330
1
100
AcDbSymbolTableRecord
100
AcDbBlockTableRecord
  2
UK_10_3-HESI_1000V-select__5
340
0
102
{BLKREFS
331
67
102
}
  0
BLOCK_RECORD
  5
66
330
1
100
AcDbSymbolTableRecord
100
AcDbBlockTableRecord
  2
SA_Rechts1
340
0
102
{BLKREFS
331
81
102
}
  0
BLOCK_RECORD
  5
6A
330
1
100
AcDbSymbolTableRecord
100
AcDbBlockTableRecord
  2
UK_10_3-HESI_1000V-select__6
340
0
102
{BLKREFS
331
6E
102
}
  0
BLOCK_RECORD
  5
6D
330
1
100
AcDbSymbolTableRecord
100
AcDbBlockTableRecord
  2
Vordans1
340
0
102
{BLKREFS
331
82
102
}
  0
BLOCK_RECORD
  5
71
330
1
100
AcDbSymbolTableRecord
100
AcDbBlockTableRecord
  2
_rahmen
340
0
102
{BLKREFS
331
78
102
}
  0
BLOCK_RECORD
  5
74
330
1
100
AcDbSymbolTableRecord
100
AcDbBlockTableRecord
  2
_punkt
340
0
102
{BLKREFS
331
79
102
}
  0
BLOCK_RECORD
  5
77
330
1
100
AcDbSymbolTableRecord
100
AcDbBlockTableRecord
  2
A4I_CS
340
0
102
{BLKREFS
331
83
102
}
  0
BLOCK_RECORD
  5
7C
330
1
100
AcDbSymbolTableRecord
100
AcDbBlockTableRecord
  2
1
340
0
102
{BLKREFS
331
86
102
}
  0
BLOCK_RECORD
  5
1B8
330
1
100
AcDbSymbolTableRecord
100
AcDbBlockTableRecord
  2
*D17
340
0
  0
BLOCK_RECORD
  5
2C3
330
1
100
AcDbSymbolTableRecord
100
AcDbBlockTableRecord
  2
*D18
340
0
  0
BLOCK_RECORD
  5
2CE
330
1
100
AcDbSymbolTableRecord
100
AcDbBlockTableRecord
  2
*D19
340
0
  0
BLOCK_RECORD
  5
2D9
330
1
100
AcDbSymbolTableRecord
100
AcDbBlockTableRecord
  2
*D20
340
0
  0
BLOCK_RECORD
  5
2E4
330
1
100
AcDbSymbolTableRecord
100
AcDbBlockTableRecord
  2
*D21
340
0
  0
BLOCK_RECORD
  5
2EF
330
1
100
AcDbSymbolTableRecord
100
AcDbBlockTableRecord
  2
*D22
340
0
102
{BLKREFS
331
2F8
102
}
  0
BLOCK_RECORD
  5
2F9
330
1
100
AcDbSymbolTableRecord
100
AcDbBlockTableRecord
  2
*D23
340
0
102
{BLKREFS
331
302
102
}
  0
ENDTAB
  0
ENDSEC
  0
SECTION
  2
BLOCKS
  0
BLOCK
  5
20
330
1F
100
AcDbEntity
  8
0
100
AcDbBlockBegin
  2
*Model_Space
 70
     0
 10
0.0
 20
0.0
 30
0.0
  3
*Model_Space
  1

  0
ENDBLK
  5
21
330
1F
100
AcDbEntity
  8
0
100
AcDbBlockEnd
  0
BLOCK
  5
1C
330
1B
100
AcDbEntity
 67
     1
  8
0
100
AcDbBlockBegin
  2
*Paper_Space
 70
     0
 10
0.0
 20
0.0
 30
0.0
  3
*Paper_Space
  1

  0
ENDBLK
  5
1D
330
1B
100
AcDbEntity
 67
     1
  8
0
100
AcDbBlockEnd
  0
BLOCK
  5
24
330
23
100
AcDbEntity
  8
0
100
AcDbBlockBegin
  2
*Paper_Space0
 70
     0
 10
0.0
 20
0.0
 30
0.0
  3
*Paper_Space0
  1

  0
ENDBLK
  5
25
330
23
100
AcDbEntity
  8
0
100
AcDbBlockEnd
  0
BLOCK
  5
48
330
47
100
AcDbEntity
  8
0
100
AcDbBlockBegin
  2
UK_10_3-HESI_1000V-select__1
 70
     0
 10
-213.6228437083618
 20
-229.4223564503045
 30
0.0
  3
UK_10_3-HESI_1000V-select__1
  1

  0
LINE
  5
87
330
47
100
AcDbEntity
  8
0
  6
Continuous
 62
     2
100
AcDbLine
 10
-171.3306083116257
 20
-172.5136713394079
 30
0.0
 11
-171.6681780043174
 21
-172.8060152688266
 31
0.0
  0
LINE
  5
88
330
47
100
AcDbEntity
  8
0
  6
Continuous
 62
     7
100
AcDbLine
 10
-158.7191296367361
 20
-174.5425728836837
 30
0.0
 11
-160.8705790019992
 21
-176.0729523138555
 31
0.0
  0
LINE
  5
89
330
47
100
AcDbEntity
  8
0
  6
Continuous
 62
     7
100
AcDbLine
 10
-160.8705790019992
 20
-176.0729523138555
 30
0.0
 11
-161.0705790019992
 21
-176.2461573946124
 31
0.0
  0
LINE
  5
8A
330
47
100
AcDbEntity
  8
0
  6
Continuous
 62
     7
100
AcDbLine
 10
-168.7277913017889
 20
-181.6619827954634
 30
0.0
 11
-168.927791301789
 21
-181.8351878762204
 31
0.0
  0
LINE
  5
8B
330
47
100
AcDbEntity
  8
0
  6
Continuous
 62
     7
100
AcDbLine
 10
-157.6694610525912
 20
-180.0622405342706
 30
0.0
 11
-161.0705790019992
 21
-176.2461573946124
 31
0.0
  0
LINE
  5
8C
330
47
100
AcDbEntity
  8
0
  6
Continuous
 62
     7
100
AcDbLine
 10
-161.0705790019992
 20
-176.2461573946124
 30
0.0
 11
-168.927791301789
 21
-181.8351878762204
 31
0.0
  0
LINE
  5
8D
330
47
100
AcDbEntity
  8
0
  6
Continuous
 62
     7
100
AcDbLine
 10
-212.1424589506325
 20
-177.1544165102802
 30
0.0
 11
-196.5540016825126
 21
-181.6544165102803
 31
0.0
  0
LINE
  5
8E
330
47
100
AcDbEntity
  8
0
  6
Continuous
 62
     7
100
AcDbLine
 10
-160.8705790019992
 20
-176.0729523138555
 30
0.0
 11
-168.7277913017889
 21
-181.6619827954634
 31
0.0
  0
LINE
  5
8F
330
47
100
AcDbEntity
  8
0
  6
Continuous
 62
     7
100
AcDbLine
 10
-203.2424589506324
 20
-169.4467904165988
 30
0.0
 11
-196.5540016825126
 21
-171.3775817187049
 31
0.0
  0
LINE
  5
90
330
47
100
AcDbEntity
  8
0
  6
Continuous
 62
     7
100
AcDbLine
 10
-203.2424589506324
 20
-169.4467904165988
 30
0.0
 11
-212.1424589506325
 21
-177.1544165102802
 31
0.0
  0
LINE
  5
91
330
47
100
AcDbEntity
  8
0
  6
Continuous
 62
     7
100
AcDbLine
 10
-157.6694610525913
 20
-192.8794165102803
 30
0.0
 11
-157.6694610525912
 21
-180.0622405342706
 31
0.0
  0
LINE
  5
92
330
47
100
AcDbEntity
  8
0
  6
Continuous
 62
     7
100
AcDbLine
 10
-148.7694610525912
 20
-185.1717904165988
 30
0.0
 11
-157.6694610525913
 21
-192.8794165102803
 31
0.0
  0
LINE
  5
93
330
47
100
AcDbEntity
  8
0
  6
Continuous
 62
     7
100
AcDbLine
 10
-157.6694610525912
 20
-180.0622405342706
 30
0.0
 11
-148.7694610525912
 21
-172.3546144405891
 31
0.0
  0
LINE
  5
94
330
47
100
AcDbEntity
  8
0
  6
Continuous
 62
     7
100
AcDbLine
 10
-148.7694610525912
 20
-185.1717904165988
 30
0.0
 11
-148.7694610525912
 21
-172.3546144405891
 31
0.0
  0
LINE
  5
95
330
47
100
AcDbEntity
  8
0
  6
Continuous
 62
     7
100
AcDbLine
 10
-148.7694610525912
 20
-172.3546144405891
 30
0.0
 11
-152.0023079281574
 21
-168.7273328706887
 31
0.0
  0
LINE
  5
96
330
47
100
AcDbEntity
  8
0
  6
Continuous
 62
     7
100
AcDbLine
 10
-150.2479890192301
 20
-167.2080481292182
 30
0.0
 11
-158.69798901923
 21
-174.5259627911967
 31
0.0
  0
LINE
  5
97
330
47
100
AcDbEntity
  8
0
  6
Continuous
 62
     2
100
AcDbLine
 10
-159.0394643434245
 20
-173.7111325087521
 30
0.0
 11
-150.5894643434245
 21
-166.3932178467737
 31
0.0
  0
LINE
  5
98
330
47
100
AcDbEntity
  8
0
  6
Continuous
 62
     7
100
AcDbLine
 10
-142.0810037844713
 20
-197.3794165102803
 30
0.0
 11
-157.6694610525913
 21
-192.8794165102803
 31
0.0
  0
LINE
  5
99
330
47
100
AcDbEntity
  8
0
  6
Continuous
 62
     7
100
AcDbLine
 10
-142.0810037844713
 20
-197.3794165102803
 30
0.0
 11
-133.1810037844713
 21
-189.6717904165988
 31
0.0
  0
LINE
  5
9A
330
47
100
AcDbEntity
  8
0
  6
Continuous
 62
     7
100
AcDbLine
 10
-133.1810037844713
 20
-221.714730356623
 30
0.0
 11
-133.1810037844713
 21
-189.6717904165988
 31
0.0
  0
LINE
  5
9B
330
47
100
AcDbEntity
  8
0
  6
Continuous
 62
     7
100
AcDbLine
 10
-133.1810037844713
 20
-221.714730356623
 30
0.0
 11
-142.0810037844714
 21
-229.4223564503045
 31
0.0
  0
LINE
  5
9C
330
47
100
AcDbEntity
  8
0
  6
Continuous
 62
     7
100
AcDbLine
 10
-139.5310037844713
 20
-217.7201881816673
 30
0.0
 11
-139.5310037844713
 21
-213.4441877504816
 31
0.0
  0
LINE
  5
9D
330
47
100
AcDbEntity
  8
0
  6
Continuous
 62
     7
100
AcDbLine
 10
-137.6310037844714
 20
-218.9542743820601
 30
0.0
 11
-139.5310037844713
 21
-217.7201881816673
 31
0.0
  0
LINE
  5
9E
330
47
100
AcDbEntity
  8
0
  6
Continuous
 62
     7
100
AcDbLine
 10
-135.7310037844714
 20
-214.4292916472864
 30
0.0
 11
-137.6310037844714
 21
-218.9542743820601
 31
0.0
  0
LINE
  5
9F
330
47
100
AcDbEntity
  8
0
  6
Continuous
 62
     7
100
AcDbLine
 10
-135.7310037844714
 20
-210.1532912161007
 30
0.0
 11
-135.7310037844714
 21
-214.4292916472864
 31
0.0
  0
LINE
  5
A0
330
47
100
AcDbEntity
  8
0
  6
Continuous
 62
     7
100
AcDbLine
 10
-142.0810037844714
 20
-229.4223564503045
 30
0.0
 11
-142.0810037844713
 21
-197.3794165102803
 31
0.0
  0
LINE
  5
A1
330
47
100
AcDbEntity
  8
0
  6
Continuous
 62
     7
100
AcDbLine
 10
-139.5310037844713
 20
-213.4441877504816
 30
0.0
 11
-135.7310037844714
 21
-210.1532912161007
 31
0.0
  0
LINE
  5
A2
330
47
100
AcDbEntity
  8
0
  6
Continuous
 62
     7
100
AcDbLine
 10
-135.7310037844714
 20
-214.4292916472864
 30
0.0
 11
-139.4341287844714
 21
-213.36029153949
 31
0.0
  0
LINE
  5
A3
330
47
100
AcDbEntity
  8
0
  6
Continuous
 62
     7
100
AcDbLine
 10
-133.1810037844713
 20
-189.6717904165988
 30
0.0
 11
-148.7694610525912
 21
-185.1717904165988
 31
0.0
  0
LINE
  5
A4
330
47
100
AcDbEntity
  8
0
  6
Continuous
 62
     7
100
AcDbLine
 10
-161.8263829907566
 20
-224.6749843944674
 30
0.0
 11
-164.1646515809745
 21
-226.5114580654423
 31
0.0
  0
LINE
  5
A5
330
47
100
AcDbEntity
  8
0
  6
Continuous
 62
     7
100
AcDbLine
 10
-162.8646515809745
 20
-225.3856250405225
 30
0.0
 11
-164.1646515809745
 21
-226.5114580654423
 31
0.0
  0
LINE
  5
A6
330
47
100
AcDbEntity
  8
0
  6
Continuous
 62
     7
100
AcDbLine
 10
-213.6228437083618
 20
-209.6504653416291
 30
0.0
 11
-213.6228437083618
 21
-207.2255942110326
 31
0.0
  0
LINE
  5
A7
330
47
100
AcDbEntity
  8
0
  6
Continuous
 62
     7
100
AcDbLine
 10
-189.7005601824918
 20
-215.6757745977607
 30
0.0
 11
-190.0194737733953
 21
-215.9519618690952
 31
0.0
  0
LINE
  5
A8
330
47
100
AcDbEntity
  8
0
  6
Continuous
 62
     7
100
AcDbLine
 10
-190.3349250579411
 20
-215.4926492319582
 30
0.0
 11
-190.0891937334925
 21
-215.6564175887981
 31
0.0
  0
LINE
  5
A9
330
47
100
AcDbEntity
  8
0
  6
Continuous
 62
     7
100
AcDbLine
 10
-191.3970797443472
 20
-215.1860315848994
 30
0.0
 11
-191.3970797443472
 21
-216.0231894752243
 31
0.0
  0
LINE
  5
AA
330
47
100
AcDbEntity
  8
0
  6
Continuous
 62
     7
100
AcDbLine
 10
-191.3970797443472
 20
-216.0231894752243
 30
0.0
 11
-192.3970797443472
 21
-216.8892148790087
 31
0.0
  0
LINE
  5
AB
330
47
100
AcDbEntity
  8
0
  6
Continuous
 62
     7
100
AcDbLine
 10
-190.0279300203977
 20
-215.95860590609
 30
0.0
 11
-193.4396687666692
 21
-218.3854605105792
 31
0.0
  0
LINE
  5
AC
330
47
100
AcDbEntity
  8
0
  6
Continuous
 62
     2
100
AcDbLine
 10
-190.0087990072452
 20
-215.5867937135377
 30
0.0
 11
-190.0891937334925
 21
-215.6564175887981
 31
0.0
  0
LINE
  5
AD
330
47
100
AcDbEntity
  8
0
  6
Continuous
 62
     7
100
AcDbLine
 10
-193.7353483345653
 20
-218.1776306843807
 30
0.0
 11
-193.7353483345653
 21
-217.8411586038216
 31
0.0
  0
LINE
  5
AE
330
47
100
AcDbEntity
  8
0
  6
Continuous
 62
     7
100
AcDbLine
 10
-192.3970797443472
 20
-216.8892148790087
 30
0.0
 11
-195.4281686575927
 21
-219.0453037922543
 31
0.0
  0
LINE
  5
AF
330
47
100
AcDbEntity
  8
0
  6
Continuous
 62
     7
100
AcDbLine
 10
-161.8263829907566
 20
-223.7223564503045
 30
0.0
 11
-161.8263829907566
 21
-224.6749843944674
 31
0.0
  0
LINE
  5
B0
330
47
100
AcDbEntity
  8
0
  6
Continuous
 62
     7
100
AcDbLine
 10
-195.4281686575927
 20
-219.0453037922543
 30
0.0
 11
-212.1424589506325
 21
-214.2203037922542
 31
0.0
  0
LINE
  5
B1
330
47
100
AcDbEntity
  8
0
  6
Continuous
 62
     7
100
AcDbLine
 10
-161.8263829907566
 20
-224.5701699908707
 30
0.0
 11
-162.8646515809745
 21
-225.3856250405225
 31
0.0
  0
LINE
  5
B2
330
47
100
AcDbEntity
  8
0
  6
Continuous
 62
     7
100
AcDbLine
 10
-164.1646515809745
 20
-226.5114580654423
 30
0.0
 11
-154.2053594374535
 21
-229.3864580654423
 31
0.0
  0
LINE
  5
B3
330
47
100
AcDbEntity
  8
0
  6
Continuous
 62
     7
100
AcDbLine
 10
-212.1424589506325
 20
-205.1396958261704
 30
0.0
 11
-212.8189961310684
 21
-205.7255942110326
 31
0.0
  0
LINE
  5
B4
330
47
100
AcDbEntity
  8
0
  6
Continuous
 62
     7
100
AcDbLine
 10
-212.1424589506325
 20
-177.1544165102802
 30
0.0
 11
-212.1424589506325
 21
-214.2203037922542
 31
0.0
  0
LINE
  5
B5
330
47
100
AcDbEntity
  8
0
  6
Continuous
 62
     7
100
AcDbLine
 10
-193.2813266190513
 20
-171.138753581296
 30
0.0
 11
-193.9813266190513
 21
-171.7449713639451
 31
0.0
  0
LINE
  5
B6
330
47
100
AcDbEntity
  8
0
  6
Continuous
 62
     7
100
AcDbLine
 10
-196.5540016825126
 20
-181.6544165102803
 30
0.0
 11
-196.5540016825126
 21
-171.0023040437317
 31
0.0
  0
LINE
  5
B7
330
47
100
AcDbEntity
  8
0
  6
Continuous
 62
     7
100
AcDbLine
 10
-192.3970797443472
 20
-214.8973564503045
 30
0.0
 11
-192.3970797443472
 21
-216.8892148790087
 31
0.0
  0
LINE
  5
B8
330
47
100
AcDbEntity
  8
0
  6
Continuous
 62
     7
100
AcDbLine
 10
-196.5540016825126
 20
-171.0023040437317
 30
0.0
 11
-193.9813266190513
 21
-171.7449713639451
 31
0.0
  0
LINE
  5
B9
330
47
100
AcDbEntity
  8
0
  6
Continuous
 62
     7
100
AcDbLine
 10
-187.6540016825125
 20
-163.2946779500502
 30
0.0
 11
-185.0813266190514
 21
-164.0373452702636
 31
0.0
  0
LINE
  5
BA
330
47
100
AcDbEntity
  8
0
  6
Continuous
 62
     2
100
AcDbLine
 10
-168.783355663941
 20
-163.6854366163201
 30
0.0
 11
-177.233355663941
 21
-171.0033512782986
 31
0.0
  0
LINE
  5
BB
330
47
100
AcDbEntity
  8
0
  6
Continuous
 62
     2
100
AcDbLine
 10
-168.690253040197
 20
-163.6890693474941
 30
0.0
 11
-177.140253040197
 21
-171.0069840094726
 31
0.0
  0
LINE
  5
BC
330
47
100
AcDbEntity
  8
0
  6
Continuous
 62
     7
100
AcDbLine
 10
-185.0813266190514
 20
-164.0373452702636
 30
0.0
 11
-171.5530593663563
 21
-163.8578318121011
 31
0.0
  0
LINE
  5
BD
330
47
100
AcDbEntity
  8
0
  6
Continuous
 62
     7
100
AcDbLine
 10
-185.7813266190514
 20
-164.6435630529127
 30
0.0
 11
-185.0813266190514
 21
-164.0373452702636
 31
0.0
  0
LINE
  5
BE
330
47
100
AcDbEntity
  8
0
  6
Continuous
 62
     7
100
AcDbLine
 10
-171.5530593663563
 20
-163.8578318121011
 30
0.0
 11
-172.2530593663563
 21
-164.4640495947502
 31
0.0
  0
LINE
  5
BF
330
47
100
AcDbEntity
  8
0
  6
Continuous
 62
     2
100
AcDbLine
 10
-168.3513932999146
 20
-163.8887129940688
 30
0.0
 11
-176.8013932999146
 21
-171.2066276560472
 31
0.0
  0
LINE
  5
C0
330
47
100
AcDbEntity
  8
0
  6
Continuous
 62
     2
100
AcDbLine
 10
-168.2361665867626
 20
-164.7142611611596
 30
0.0
 11
-176.6861665867626
 21
-172.0321758231381
 31
0.0
  0
LINE
  5
C1
330
47
100
AcDbEntity
  8
0
  6
Continuous
 62
     7
100
AcDbLine
 10
-168.3513932999146
 20
-163.8887129940688
 30
0.0
 11
-168.2655647019837
 21
-164.0069444660667
 31
0.0
  0
LINE
  5
C2
330
47
100
AcDbEntity
  8
0
  6
Continuous
 62
     7
100
AcDbLine
 10
-168.334889325499
 20
-164.2428038682942
 30
0.0
 11
-168.2361665867626
 21
-164.7142611611596
 31
0.0
  0
LINE
  5
C3
330
47
100
AcDbEntity
  8
0
  6
Continuous
 62
     7
100
AcDbLine
 10
-167.7193283172035
 20
-165.1919076923643
 30
0.0
 11
-164.482245756036
 21
-165.4049201117612
 31
0.0
  0
LINE
  5
C4
330
47
100
AcDbEntity
  8
0
  6
Continuous
 62
     7
100
AcDbLine
 10
-162.9142782379715
 20
-164.1253557214698
 30
0.0
 11
-171.3642782379719
 21
-171.443270383446
 31
0.0
  0
LINE
  5
C5
330
47
100
AcDbEntity
  8
0
  6
Continuous
 62
     7
100
AcDbLine
 10
-171.5217869775597
 20
-171.5013416405885
 30
0.0
 11
-163.0717869775597
 21
-164.18342697861
 31
0.0
  0
LINE
  5
C6
330
47
100
AcDbEntity
  8
0
  6
Continuous
 62
     2
100
AcDbLine
 10
-167.7193283172035
 20
-165.1919076923643
 30
0.0
 11
-176.1693283172035
 21
-172.5098223543428
 31
0.0
  0
LINE
  5
C7
330
47
100
AcDbEntity
  8
0
  6
Continuous
 62
     7
100
AcDbLine
 10
-187.0549635768359
 20
-164.2758957326993
 30
0.0
 11
-185.7813266190514
 21
-164.6435630529127
 31
0.0
  0
LINE
  5
C8
330
47
100
AcDbEntity
  8
0
  6
Continuous
 62
     7
100
AcDbLine
 10
-187.0549635768359
 20
-168.6956165003717
 30
0.0
 11
-187.0549635768359
 21
-164.2758957326993
 31
0.0
  0
LINE
  5
C9
330
47
100
AcDbEntity
  8
0
  6
Continuous
 62
     7
100
AcDbLine
 10
-184.3854900780261
 20
-166.3837846356731
 30
0.0
 11
-189.823066754362
 21
-171.0928641724058
 31
0.0
  0
LINE
  5
CA
330
47
100
AcDbEntity
  8
0
  6
Continuous
 62
     7
100
AcDbLine
 10
-178.7813120793699
 20
-165.5418206507319
 30
0.0
 11
-178.7813120793699
 21
-165.6250627077795
 31
0.0
  0
LINE
  5
CB
330
47
100
AcDbEntity
  8
0
  6
Continuous
 62
     7
100
AcDbLine
 10
-183.3633908814481
 20
-171.007147448091
 30
0.0
 11
-176.7894536506657
 21
-165.3139508033491
 31
0.0
  0
LINE
  5
CC
330
47
100
AcDbEntity
  8
0
  6
Continuous
 62
     2
100
AcDbLine
 10
-179.7238450300351
 20
-164.6234813109259
 30
0.0
 11
-186.6738450300351
 21
-170.6423578672277
 31
0.0
  0
LINE
  5
CD
330
47
100
AcDbEntity
  8
0
  6
Continuous
 62
     2
100
AcDbLine
 10
-178.7813120793699
 20
-165.6250627077795
 30
0.0
 11
-185.0214129525869
 21
-171.0291485861629
 31
0.0
  0
LINE
  5
CE
330
47
100
AcDbEntity
  8
0
  6
Continuous
 62
     2
100
AcDbLine
 10
-180.3505386823755
 20
-164.6875274244234
 30
0.0
 11
-187.3005386823755
 21
-170.7064039807252
 31
0.0
  0
LINE
  5
CF
330
47
100
AcDbEntity
  8
0
  6
Continuous
 62
     7
100
AcDbLine
 10
-170.724663733593
 20
-165.2466604201791
 30
0.0
 11
-176.7894536506657
 21
-165.3139508033491
 31
0.0
  0
LINE
  5
D0
330
47
100
AcDbEntity
  8
0
  6
Continuous
 62
     7
100
AcDbLine
 10
-185.7813266190514
 20
-164.6435630529127
 30
0.0
 11
-172.2530593663563
 21
-164.4640495947502
 31
0.0
  0
LINE
  5
D1
330
47
100
AcDbEntity
  8
0
  6
Continuous
 62
     7
100
AcDbLine
 10
-193.2813266190513
 20
-171.138753581296
 30
0.0
 11
-179.7530593663563
 21
-170.9592401231335
 31
0.0
  0
LINE
  5
D2
330
47
100
AcDbEntity
  8
0
  6
Continuous
 62
     7
100
AcDbLine
 10
-176.8013932999146
 20
-171.2066276560472
 30
0.0
 11
-176.7155647019837
 21
-171.3248591280452
 31
0.0
  0
LINE
  5
D3
330
47
100
AcDbEntity
  8
0
  6
Continuous
 62
     7
100
AcDbLine
 10
-176.7936472319137
 20
-171.5188945401538
 30
0.0
 11
-176.6861665867626
 21
-172.0321758231381
 31
0.0
  0
LINE
  5
D4
330
47
100
AcDbEntity
  8
0
  6
Continuous
 62
     7
100
AcDbLine
 10
-177.5612504203902
 20
-172.7798329740411
 30
0.0
 11
-177.5612504203902
 21
-171.3287559938862
 31
0.0
  0
LINE
  5
D5
330
47
100
AcDbEntity
  8
0
  6
Continuous
 62
     7
100
AcDbLine
 10
-179.0451323921538
 20
-171.2807426740266
 30
0.0
 11
-177.5561919514193
 21
-171.2642225019936
 31
0.0
  0
LINE
  5
D6
330
47
100
AcDbEntity
  8
0
  6
Continuous
 62
     7
100
AcDbLine
 10
-179.7530593663563
 20
-170.9592401231335
 30
0.0
 11
-180.4530593663563
 21
-171.5654579057826
 31
0.0
  0
LINE
  5
D7
330
47
100
AcDbEntity
  8
0
  6
Continuous
 62
     7
100
AcDbLine
 10
-194.5549635768359
 20
-170.7710862610826
 30
0.0
 11
-193.2813266190513
 21
-171.138753581296
 31
0.0
  0
LINE
  5
D8
330
47
100
AcDbEntity
  8
0
  6
Continuous
 62
     7
100
AcDbLine
 10
-193.9813266190513
 20
-171.7449713639451
 30
0.0
 11
-180.4530593663563
 21
-171.5654579057826
 31
0.0
  0
LINE
  5
D9
330
47
100
AcDbEntity
  8
0
  6
Continuous
 62
     7
100
AcDbLine
 10
-176.1693283172035
 20
-172.5098223543428
 30
0.0
 11
-171.6681780043174
 21
-172.8060152688266
 31
0.0
  0
LINE
  5
DA
330
47
100
AcDbEntity
  8
0
  6
Continuous
 62
     7
100
AcDbLine
 10
-171.3397298301423
 20
-172.3839918201553
 30
0.0
 11
-171.4472104752934
 21
-171.8707105371706
 31
0.0
  0
LINE
  5
DB
330
47
100
AcDbEntity
  8
0
  6
Continuous
 62
     7
100
AcDbLine
 10
-171.6098719665813
 20
-171.6608332472471
 30
0.0
 11
-171.5904193418535
 21
-171.6045108220189
 31
0.0
  0
LINE
  5
DC
330
47
100
AcDbEntity
  8
0
  6
Continuous
 62
     7
100
AcDbLine
 10
-194.5549635768359
 20
-170.7710862610826
 30
0.0
 11
-187.0549635768359
 21
-164.2758957326993
 31
0.0
  0
LINE
  5
DD
330
47
100
AcDbEntity
  8
0
  6
Continuous
 62
     2
100
AcDbLine
 10
-178.7813120793699
 20
-165.5418206507319
 30
0.0
 11
-185.1190282930543
 21
-171.0304438937592
 31
0.0
  0
LINE
  5
DE
330
47
100
AcDbEntity
  8
0
  6
Continuous
 62
     2
100
AcDbLine
 10
-168.2655647019837
 20
-164.0069444660667
 30
0.0
 11
-176.7155647019837
 21
-171.3248591280452
 31
0.0
  0
LINE
  5
DF
330
47
100
AcDbEntity
  8
0
  6
Continuous
 62
     7
100
AcDbLine
 10
-168.2630433242861
 20
-164.1805834060835
 30
0.0
 11
-176.7130433242861
 21
-171.498498068062
 31
0.0
  0
LINE
  5
E0
330
47
100
AcDbEntity
  8
0
  6
Continuous
 62
     7
100
AcDbLine
 10
-169.005564553852
 20
-163.7578768588984
 30
0.0
 11
-177.455564553852
 21
-171.0757915208769
 31
0.0
  0
LINE
  5
E1
330
47
100
AcDbEntity
  8
0
  6
Continuous
 62
     7
100
AcDbLine
 10
-196.5540016825126
 20
-171.0023040437317
 30
0.0
 11
-187.6540016825125
 21
-163.2946779500502
 31
0.0
  0
LINE
  5
E2
330
47
100
AcDbEntity
  8
0
  6
Continuous
 62
     7
100
AcDbLine
 10
-154.2053594374535
 20
-229.3864580654423
 30
0.0
 11
-142.0810037844714
 21
-229.4223564503045
 31
0.0
  0
LINE
  5
E3
330
47
100
AcDbEntity
  8
0
  6
Continuous
 62
     7
100
AcDbLine
 10
-161.8263829907566
 20
-223.7223564503045
 30
0.0
 11
-192.3970797443472
 21
-214.8973564503045
 31
0.0
  0
SPLINE
  5
E4
330
47
100
AcDbEntity
  8
0
  6
Continuous
 62
     7
100
AcDbSpline
210
0.0
220
0.0
230
1.0
 70
     8
 71
     3
 72
    21
 73
    17
 74
    15
 42
0.000000001
 43
0.0000000001
 44
0.00000001
 40
0.0
 40
0.0
 40
0.0
 40
0.0
 40
0.3991765463466988
 40
0.8506424425764396
 40
1.383532183908347
 40
2.003141811389938
 40
2.698743368954638
 40
3.449749950553989
 40
4.229808147133766
 40
5.009866343713486
 40
5.760872925312865
 40
6.456474482877611
 40
7.07608411035915
 40
7.608973851691098
 40
8.060439747920816
 40
8.459616294267555
 40
8.459616294267555
 40
8.459616294267555
 40
8.459616294267555
 10
-197.3508582607354
 20
-175.2756034634395
 30
0.0
 10
-197.3698175785737
 20
-175.1419007696891
 30
0.0
 10
-197.4102197704282
 20
-174.8569812660236
 30
0.0
 10
-197.7039711260638
 20
-174.4799620069004
 30
0.0
 10
-198.1280613299453
 20
-174.1525349905643
 30
0.0
 10
-198.6865750921947
 20
-173.8822194530907
 30
0.0
 10
-199.3466409465549
 20
-173.6795501097631
 30
0.0
 10
-200.0800902976517
 20
-173.5538327641165
 30
0.0
 10
-200.8508582607353
 20
-173.5112212548638
 30
0.0
 10
-201.6216262238191
 20
-173.5538327641164
 30
0.0
 10
-202.3550755749159
 20
-173.6795501097632
 30
0.0
 10
-203.015141429276
 20
-173.8822194530906
 30
0.0
 10
-203.5736551915255
 20
-174.1525349905643
 30
0.0
 10
-203.997745395407
 20
-174.4799620069003
 30
0.0
 10
-204.2914967510425
 20
-174.8569812660238
 30
0.0
 10
-204.3318989428971
 20
-175.1419007696891
 30
0.0
 10
-204.3508582607354
 20
-175.2756034634395
 30
0.0
 11
-197.3508582607354
 21
-175.2756034634395
 31
0.0
 11
-197.4386109287781
 21
-174.8861918701773
 31
0.0
 11
-197.6974672230769
 21
-174.5163069199838
 31
0.0
 11
-198.1144483613394
 21
-174.1844964255182
 31
0.0
 11
-198.6686439542299
 21
-173.9073983691205
 31
0.0
 11
-199.3322653343412
 21
-173.6989081112691
 31
0.0
 11
-200.0720349918882
 21
-173.5694796171213
 31
0.0
 11
-200.8508582607354
 21
-173.5256036484168
 31
0.0
 11
-201.6296815295825
 21
-173.5694796171213
 31
0.0
 11
-202.3694511871295
 21
-173.6989081112691
 31
0.0
 11
-203.0330725672409
 21
-173.9073983691205
 31
0.0
 11
-203.5872681601313
 21
-174.1844964255182
 31
0.0
 11
-204.0042492983939
 21
-174.5163069199838
 31
0.0
 11
-204.2631055926927
 21
-174.8861918701773
 31
0.0
 11
-204.3508582607354
 21
-175.2756034634395
 31
0.0
  0
SPLINE
  5
E5
330
47
100
AcDbEntity
  8
0
  6
Continuous
 62
     7
100
AcDbSpline
210
0.0
220
0.0
230
1.0
 70
     8
 71
     3
 72
    11
 73
     7
 74
     5
 42
0.000000001
 43
0.0000000001
 44
0.00000001
 40
0.0
 40
0.0
 40
0.0
 40
0.0
 40
0.2883603701977379
 40
0.5503579325761098
 40
0.7919843279900084
 40
1.02235937088022
 40
1.02235937088022
 40
1.02235937088022
 40
1.02235937088022
 10
-197.8197693474898
 20
-176.1506034634395
 30
0.0
 10
-197.7494610798652
 20
-176.0846377281592
 30
0.0
 10
-197.6152723570626
 20
-175.9587370416661
 30
0.0
 10
-197.4663876082075
 20
-175.738735736909
 30
0.0
 10
-197.3691152305782
 20
-175.5103919710509
 30
0.0
 10
-197.3568464265424
 20
-175.3526126094485
 30
0.0
 10
-197.3508582607354
 20
-175.2756034634395
 30
0.0
 11
-197.8197693474898
 21
-176.1506034634395
 31
0.0
 11
-197.6172799104066
 21
-175.9452994672906
 31
0.0
 11
-197.4701178687237
 21
-175.7285367923689
 31
0.0
 11
-197.3808012603722
 21
-175.5040242988737
 31
0.0
 11
-197.3508582607354
 21
-175.2756034634395
 31
0.0
  0
SPLINE
  5
E6
330
47
100
AcDbEntity
  8
0
  6
Continuous
 62
     7
100
AcDbSpline
210
0.0
220
0.0
230
1.0
 70
     8
 71
     3
 72
    19
 73
    15
 74
    13
 42
0.000000001
 43
0.0000000001
 44
0.00000001
 40
0.0
 40
0.0
 40
0.0
 40
0.0
 40
0.3877489392283774
 40
0.8238572193182387
 40
1.336114686713199
 40
1.930646211511798
 40
2.598709442171248
 40
3.322264418576758
 40
4.077690315721773
 40
4.838535014584891
 40
5.577887029953558
 40
6.27069352496966
 40
6.89630780945936
 40
7.441724807536102
 40
7.441724807536102
 40
7.441724807536102
 40
7.441724807536102
 10
-204.3508582607354
 20
-175.2756034634395
 30
0.0
 10
-204.3330341199113
 20
-175.4054731182385
 30
0.0
 10
-204.2951628349885
 20
-175.681409530654
 30
0.0
 10
-204.0178221745822
 20
-176.0495558339279
 30
0.0
 10
-203.6152915238749
 20
-176.3716723289852
 30
0.0
 10
-203.0836623430125
 20
-176.640706186565
 30
0.0
 10
-202.4527536018502
 20
-176.8468509064845
 30
0.0
 10
-201.7479575536825
 20
-176.9811983917241
 30
0.0
 10
-201.0019815939665
 20
-177.0376354739169
 30
0.0
 10
-200.2491848665389
 20
-177.0131952783257
 30
0.0
 10
-199.5234122640686
 20
-176.9101788348361
 30
0.0
 10
-198.8610385331378
 20
-176.7294128336177
 30
0.0
 10
-198.2812135887198
 20
-176.4920078486542
 30
0.0
 10
-197.966397435222
 20
-176.2590878045546
 30
0.0
 10
-197.8197693474898
 20
-176.1506034634395
 30
0.0
 11
-204.3508582607354
 21
-175.2756034634395
 31
0.0
 11
-204.2678939806502
 21
-175.6543727540222
 31
0.0
 11
-204.0229355153637
 21
-176.0151854214857
 31
0.0
 11
-203.6275947039029
 21
-176.3409358691131
 31
0.0
 11
-203.1006148946383
 21
-176.6161812388977
 31
0.0
 11
-202.466978262803
 21
-176.8278722829457
 31
0.0
 11
-201.7567249185942
 21
-176.9659736594454
 31
0.0
 11
-201.0035261028869
 21
-177.0239376951513
 31
0.0
 11
-200.2430896389012
 21
-176.9990170312109
 31
0.0
 11
-199.5114663670119
 21
-176.8923925010195
 31
0.0
 11
-198.8433407335067
 21
-176.7091195409453
 31
0.0
 11
-198.270387812233
 21
-176.4578862212363
 31
0.0
 11
-197.8197693474898
 21
-176.1506034634395
 31
0.0
  0
SPLINE
  5
E7
330
47
100
AcDbEntity
  8
0
  6
Continuous
 62
     7
100
AcDbSpline
210
0.0
220
0.0
230
1.0
 70
     8
 71
     3
 72
     9
 73
     5
 74
     3
 42
0.000000001
 43
0.0000000001
 44
0.00000001
 40
0.0
 40
0.0
 40
0.0
 40
0.0
 40
0.0134531932712692
 40
0.0268929861030607
 40
0.0268929861030607
 40
0.0268929861030607
 40
0.0268929861030607
 10
-158.7191296367361
 20
-174.5425728836837
 30
0.0
 10
-158.715505289754
 20
-174.5399293528571
 30
0.0
 10
-158.7082602180866
 20
-174.5346449085038
 30
0.0
 10
-158.70141161048
 20
-174.5288558739519
 30
0.0
 10
-158.69798901923
 20
-174.5259627911967
 30
0.0
 11
-158.7191296367361
 21
-174.5425728836837
 31
0.0
 11
-158.7083558165959
 21
-174.5345160098978
 31
0.0
 11
-158.69798901923
 21
-174.5259627911967
 31
0.0
  0
SPLINE
  5
E8
330
47
100
AcDbEntity
  8
0
  6
Continuous
 62
     7
100
AcDbSpline
210
0.0
220
0.0
230
1.0
 70
     8
 71
     3
 72
     9
 73
     5
 74
     3
 42
0.000000001
 43
0.0000000001
 44
0.00000001
 40
0.0
 40
0.0
 40
0.0
 40
0.0
 40
6.333542423045947
 40
12.53941444961129
 40
12.53941444961129
 40
12.53941444961129
 40
12.53941444961129
 10
-159.0394643434245
 20
-173.7111325087521
 30
0.0
 10
-161.0945586084464
 20
-173.2206394996846
 30
0.0
 10
-165.1633209259369
 20
-172.2495407700228
 30
0.0
 10
-169.3113702928303
 20
-171.7101967236715
 30
0.0
 10
-171.3642782379719
 20
-171.443270383446
 30
0.0
 11
-159.0394643434245
 21
-173.7111325087521
 31
0.0
 11
-165.2249745894614
 21
-172.3498013127791
 31
0.0
 11
-171.3642782379719
 21
-171.443270383446
 31
0.0
  0
SPLINE
  5
E9
330
47
100
AcDbEntity
  8
0
  6
Continuous
 62
     7
100
AcDbSpline
210
0.0
220
0.0
230
1.0
 70
     8
 71
     3
 72
    15
 73
    11
 74
     9
 42
0.000000001
 43
0.0000000001
 44
0.00000001
 40
0.0
 40
0.0
 40
0.0
 40
0.0
 40
0.1091126816973726
 40
0.2245697542489988
 40
0.3499292241645965
 40
0.4851377127631084
 40
0.6272363802478814
 40
0.7715400081385684
 40
0.9128545895208207
 40
1.046680831645435
 40
1.046680831645435
 40
1.046680831645435
 40
1.046680831645435
 10
-150.2479890192301
 20
-167.2080481292182
 30
0.0
 10
-150.2231456560561
 20
-167.1808883993533
 30
0.0
 10
-150.1720144156396
 20
-167.1249897204556
 30
0.0
 10
-150.1398690680763
 20
-167.0089566091621
 30
0.0
 10
-150.142217833788
 20
-166.8825589325722
 30
0.0
 10
-150.1804748196263
 20
-166.7523193356621
 30
0.0
 10
-150.2501466701045
 20
-166.6288929202291
 30
0.0
 10
-150.3461503441026
 20
-166.5224452595252
 30
0.0
 10
-150.4599353532695
 20
-166.4378517249348
 30
0.0
 10
-150.547078586246
 20
-166.4078233806981
 30
0.0
 10
-150.5894643434245
 20
-166.3932178467737
 30
0.0
 11
-150.2479890192301
 21
-167.2080481292182
 31
0.0
 11
-150.1806595892713
 21
-167.1221858772064
 31
0.0
 11
-150.1462095007881
 21
-167.0119881983584
 31
0.0
 11
-150.1475096412671
 21
-166.8866354676833
 31
0.0
 11
-150.1844508897415
 21
-166.7565713299333
 31
0.0
 11
-150.2539563542029
 21
-166.6326317402649
 31
0.0
 11
-150.3502347085895
 21
-166.5251421338855
 31
0.0
 11
-150.4652652963867
 21
-166.4430581854433
 31
0.0
 11
-150.5894643434245
 21
-166.3932178467737
 31
0.0
  0
SPLINE
  5
EA
330
47
100
AcDbEntity
  8
0
  6
Continuous
 62
     7
100
AcDbSpline
210
0.0
220
0.0
230
1.0
 70
     8
 71
     3
 72
    15
 73
    11
 74
     9
 42
0.000000001
 43
0.0000000001
 44
0.00000001
 40
0.0
 40
0.0
 40
0.0
 40
0.0
 40
0.1091126816972928
 40
0.2245697542488291
 40
0.349929224164484
 40
0.4851377127630427
 40
0.6272363802478049
 40
0.771540008138473
 40
0.9128545895207583
 40
1.046680831645404
 40
1.046680831645404
 40
1.046680831645404
 40
1.046680831645404
 10
-158.69798901923
 20
-174.5259627911967
 30
0.0
 10
-158.6731456560561
 20
-174.4988030613318
 30
0.0
 10
-158.6220144156396
 20
-174.4429043824342
 30
0.0
 10
-158.5898690680763
 20
-174.3268712711407
 30
0.0
 10
-158.5922178337881
 20
-174.2004735945508
 30
0.0
 10
-158.6304748196263
 20
-174.0702339976406
 30
0.0
 10
-158.7001466701045
 20
-173.9468075822076
 30
0.0
 10
-158.7961503441026
 20
-173.8403599215037
 30
0.0
 10
-158.9099353532696
 20
-173.7557663869133
 30
0.0
 10
-158.997078586246
 20
-173.7257380426765
 30
0.0
 10
-159.0394643434245
 20
-173.7111325087521
 30
0.0
 11
-158.69798901923
 21
-174.5259627911967
 31
0.0
 11
-158.6306595892712
 21
-174.440100539185
 31
0.0
 11
-158.5962095007881
 21
-174.329902860337
 31
0.0
 11
-158.5975096412671
 21
-174.2045501296618
 31
0.0
 11
-158.6344508897415
 21
-174.0744859919118
 31
0.0
 11
-158.7039563542029
 21
-173.9505464022434
 31
0.0
 11
-158.8002347085894
 21
-173.8430567958641
 31
0.0
 11
-158.9152652963867
 21
-173.7609728474218
 31
0.0
 11
-159.0394643434245
 21
-173.7111325087521
 31
0.0
  0
SPLINE
  5
EB
330
47
100
AcDbEntity
  8
0
  6
Continuous
 62
     7
100
AcDbSpline
210
0.0
220
0.0
230
1.0
 70
     8
 71
     3
 72
     9
 73
     5
 74
     3
 42
0.000000001
 43
0.0000000001
 44
0.00000001
 40
0.0
 40
0.0
 40
0.0
 40
0.0
 40
6.333542423045877
 40
12.53941444961056
 40
12.53941444961056
 40
12.53941444961056
 40
12.53941444961056
 10
-150.5894643434245
 20
-166.3932178467737
 30
0.0
 10
-152.6445586084464
 20
-165.9027248377061
 30
0.0
 10
-156.7133209259366
 20
-164.9316261080442
 30
0.0
 10
-160.86137029283
 20
-164.3922820616945
 30
0.0
 10
-162.9142782379715
 20
-164.1253557214698
 30
0.0
 11
-150.5894643434245
 21
-166.3932178467737
 31
0.0
 11
-156.7749745894614
 21
-165.0318866508009
 31
0.0
 11
-162.9142782379715
 21
-164.1253557214698
 31
0.0
  0
SPLINE
  5
EC
330
47
100
AcDbEntity
  8
0
  6
Continuous
 62
     7
100
AcDbSpline
210
0.0
220
0.0
230
1.0
 70
     8
 71
     3
 72
    21
 73
    17
 74
    15
 42
0.000000001
 43
0.0000000001
 44
0.00000001
 40
0.0
 40
0.0
 40
0.0
 40
0.0
 40
0.3991765463467945
 40
0.8506424425765189
 40
1.383532183908409
 40
2.003141811390012
 40
2.698743368954704
 40
3.449749950554055
 40
4.229808147133807
 40
5.00986634371353
 40
5.760872925312965
 40
6.456474482877711
 40
7.076084110359238
 40
7.608973851691128
 40
8.060439747920862
 40
8.459616294267677
 40
8.459616294267677
 40
8.459616294267677
 40
8.459616294267677
 10
-147.9726044743684
 20
-191.5506034634396
 30
0.0
 10
-147.9536451565301
 20
-191.4169007696891
 30
0.0
 10
-147.9132429646755
 20
-191.1319812660238
 30
0.0
 10
-147.6194916090401
 20
-190.7549620069003
 30
0.0
 10
-147.1954014051584
 20
-190.4275349905644
 30
0.0
 10
-146.6368876429091
 20
-190.1572194530907
 30
0.0
 10
-145.9768217885489
 20
-189.9545501097632
 30
0.0
 10
-145.2433724374521
 20
-189.8288327641165
 30
0.0
 10
-144.4726044743684
 20
-189.7862212548638
 30
0.0
 10
-143.7018365112847
 20
-189.8288327641165
 30
0.0
 10
-142.9683871601879
 20
-189.9545501097632
 30
0.0
 10
-142.3083213058277
 20
-190.1572194530906
 30
0.0
 10
-141.7498075435784
 20
-190.4275349905644
 30
0.0
 10
-141.3257173396968
 20
-190.7549620069003
 30
0.0
 10
-141.0319659840613
 20
-191.1319812660236
 30
0.0
 10
-140.9915637922067
 20
-191.4169007696892
 30
0.0
 10
-140.9726044743684
 20
-191.5506034634396
 30
0.0
 11
-147.9726044743684
 21
-191.5506034634396
 31
0.0
 11
-147.8848518063257
 21
-191.1611918701773
 31
0.0
 11
-147.6259955120269
 21
-190.7913069199838
 31
0.0
 11
-147.2090143737643
 21
-190.4594964255182
 31
0.0
 11
-146.6548187808739
 21
-190.1823983691205
 31
0.0
 11
-145.9911974007626
 21
-189.9739081112691
 31
0.0
 11
-145.2514277432155
 21
-189.8444796171214
 31
0.0
 11
-144.4726044743684
 21
-189.8006036484168
 31
0.0
 11
-143.6937812055214
 21
-189.8444796171214
 31
0.0
 11
-142.9540115479742
 21
-189.9739081112691
 31
0.0
 11
-142.2903901678628
 21
-190.1823983691205
 31
0.0
 11
-141.7361945749725
 21
-190.4594964255182
 31
0.0
 11
-141.31921343671
 21
-190.7913069199838
 31
0.0
 11
-141.0603571424111
 21
-191.1611918701773
 31
0.0
 11
-140.9726044743684
 21
-191.5506034634396
 31
0.0
  0
SPLINE
  5
ED
330
47
100
AcDbEntity
  8
0
  6
Continuous
 62
     7
100
AcDbSpline
210
0.0
220
0.0
230
1.0
 70
     8
 71
     3
 72
    19
 73
    15
 74
    13
 42
0.000000001
 43
0.0000000001
 44
0.00000001
 40
0.0
 40
0.0
 40
0.0
 40
0.0
 40
0.5454169980766158
 40
1.171031282566293
 40
1.863837777582391
 40
2.603189792951091
 40
3.364034491814205
 40
4.119460388959215
 40
4.843015365364686
 40
5.511078596024135
 40
6.105610120822811
 40
6.617867588217753
 40
7.053975868307638
 40
7.441724807535953
 40
7.441724807535953
 40
7.441724807535953
 40
7.441724807535953
 10
-141.4415155611229
 20
-192.4256034634396
 30
0.0
 10
-141.5881436488551
 20
-192.5340878045546
 30
0.0
 10
-141.9029598023528
 20
-192.7670078486543
 30
0.0
 10
-142.4827847467709
 20
-193.0044128336177
 30
0.0
 10
-143.1451584777016
 20
-193.1851788348361
 30
0.0
 10
-143.8709310801721
 20
-193.2881952783259
 30
0.0
 10
-144.6237278075994
 20
-193.3126354739169
 30
0.0
 10
-145.3697037673155
 20
-193.2561983917241
 30
0.0
 10
-146.0744998154833
 20
-193.1218509064846
 30
0.0
 10
-146.7054085566455
 20
-192.915706186565
 30
0.0
 10
-147.2370377375079
 20
-192.6466723289853
 30
0.0
 10
-147.6395683882153
 20
-192.324555833928
 30
0.0
 10
-147.9169090486216
 20
-191.9564095306541
 30
0.0
 10
-147.9547803335443
 20
-191.6804731182386
 30
0.0
 10
-147.9726044743684
 20
-191.5506034634396
 30
0.0
 11
-141.4415155611229
 21
-192.4256034634396
 31
0.0
 11
-141.892134025866
 21
-192.7328862212363
 31
0.0
 11
-142.4650869471398
 21
-192.9841195409453
 31
0.0
 11
-143.1332125806449
 21
-193.1673925010196
 31
0.0
 11
-143.8648358525342
 21
-193.274017031211
 31
0.0
 11
-144.6252723165199
 21
-193.2989376951513
 31
0.0
 11
-145.3784711322272
 21
-193.2409736594454
 31
0.0
 11
-146.0887244764359
 21
-193.1028722829458
 31
0.0
 11
-146.7223611082712
 21
-192.8911812388978
 31
0.0
 11
-147.2493409175359
 21
-192.6159358691132
 31
0.0
 11
-147.6446817289967
 21
-192.2901854214858
 31
0.0
 11
-147.8896401942832
 21
-191.9293727540223
 31
0.0
 11
-147.9726044743684
 21
-191.5506034634396
 31
0.0
  0
SPLINE
  5
EE
330
47
100
AcDbEntity
  8
0
  6
Continuous
 62
     7
100
AcDbSpline
210
0.0
220
0.0
230
1.0
 70
     8
 71
     3
 72
    11
 73
     7
 74
     5
 42
0.000000001
 43
0.0000000001
 44
0.00000001
 40
0.0
 40
0.0
 40
0.0
 40
0.0
 40
0.2303750428901831
 40
0.4720014383041081
 40
0.7339990006825194
 40
1.022359370880297
 40
1.022359370880297
 40
1.022359370880297
 40
1.022359370880297
 10
-140.9726044743684
 20
-191.5506034634396
 30
0.0
 10
-140.9785926401753
 20
-191.6276126094485
 30
0.0
 10
-140.9908614442112
 20
-191.7853919710509
 30
0.0
 10
-141.0881338218404
 20
-192.0137357369091
 30
0.0
 10
-141.2370185706957
 20
-192.2337370416662
 30
0.0
 10
-141.3712072934983
 20
-192.3596377281592
 30
0.0
 10
-141.4415155611229
 20
-192.4256034634396
 30
0.0
 11
-140.9726044743684
 21
-191.5506034634396
 31
0.0
 11
-141.0025474740052
 21
-191.7790242988738
 31
0.0
 11
-141.0918640823567
 21
-192.003536792369
 31
0.0
 11
-141.2390261240397
 21
-192.2202994672907
 31
0.0
 11
-141.4415155611229
 21
-192.4256034634396
 31
0.0
  0
SPLINE
  5
EF
330
47
100
AcDbEntity
  8
0
  6
Continuous
 62
     7
100
AcDbSpline
210
0.0
220
0.0
230
1.0
 70
     8
 71
     3
 72
    11
 73
     7
 74
     5
 42
0.000000001
 43
0.0000000001
 44
0.00000001
 40
0.0
 40
0.0
 40
0.0
 40
0.0
 40
0.5440471188249095
 40
1.135945480614614
 40
1.80835196485021
 40
2.575409265919914
 40
2.575409265919914
 40
2.575409265919914
 40
2.575409265919914
 10
-213.6228437083618
 20
-209.6504653416291
 30
0.0
 10
-213.6028547042679
 20
-209.832609671914
 30
0.0
 10
-213.5611185642375
 20
-210.2129186931809
 30
0.0
 10
-213.2422293641454
 20
-210.7421147381797
 30
0.0
 10
-212.767773935652
 20
-211.2311043956446
 30
0.0
 10
-212.3598384418102
 20
-211.4871574888084
 30
0.0
 10
-212.1424589506325
 20
-211.623602314943
 30
0.0
 11
-213.6228437083618
 21
-209.6504653416291
 31
0.0
 11
-213.5265015709192
 21
-210.1859141842638
 31
0.0
 11
-213.2405697364636
 21
-210.704167656468
 31
0.0
 11
-212.7742299909698
 21
-211.188582484259
 31
0.0
 11
-212.1424589506325
 21
-211.623602314943
 31
0.0
  0
SPLINE
  5
F0
330
47
100
AcDbEntity
  8
0
  6
Continuous
 62
     7
100
AcDbSpline
210
0.0
220
0.0
230
1.0
 70
     8
 71
     3
 72
     9
 73
     5
 74
     3
 42
0.000000001
 43
0.0000000001
 44
0.00000001
 40
0.0
 40
0.0
 40
0.0
 40
0.0
 40
0.0053812771652944
 40
0.0107571941548446
 40
0.0107571941548446
 40
0.0107571941548446
 40
0.0107571941548446
 10
-190.0279300203977
 20
-215.95860590609
 30
0.0
 10
-190.0264802816434
 20
-215.9575484937874
 30
0.0
 10
-190.0235822603509
 20
-215.9554347065836
 30
0.0
 10
-190.0208428098588
 20
-215.9531191021664
 30
0.0
 10
-190.0194737733953
 20
-215.9519618690952
 30
0.0
 11
-190.0279300203977
 21
-215.95860590609
 31
0.0
 11
-190.0236204923417
 21
-215.9553831565756
 31
0.0
 11
-190.0194737733953
 21
-215.9519618690952
 31
0.0
  0
SPLINE
  5
F1
330
47
100
AcDbEntity
  8
0
  6
Continuous
 62
     7
100
AcDbSpline
210
0.0
220
0.0
230
1.0
 70
     8
 71
     3
 72
    13
 73
     9
 74
     7
 42
0.000000001
 43
0.0000000001
 44
0.00000001
 40
0.0
 40
0.0
 40
0.0
 40
0.0
 40
0.0483492011229583
 40
0.1000562443245832
 40
0.1567321471408414
 40
0.2178824920459977
 40
0.2814898598379913
 40
0.3448144689600033
 40
0.3448144689600033
 40
0.3448144689600033
 40
0.3448144689600033
 10
-190.0194737733953
 20
-215.9519618690952
 30
0.0
 10
-190.0086022395921
 20
-215.9397482667762
 30
0.0
 10
-189.9861041574555
 20
-215.9144728218125
 30
0.0
 10
-189.9747188155046
 20
-215.8614510982496
 30
0.0
 10
-189.9801083605332
 20
-215.8046427503736
 30
0.0
 10
-190.0027127859421
 20
-215.7478415558686
 30
0.0
 10
-190.0389156674196
 20
-215.6955782611354
 30
0.0
 10
-190.0724592827227
 20
-215.6694517425207
 30
0.0
 10
-190.0891937334925
 20
-215.6564175887981
 30
0.0
 11
-190.0194737733953
 21
-215.9519618690952
 31
0.0
 11
-189.9904153568968
 21
-215.9133192225491
 31
0.0
 11
-189.9776559228626
 21
-215.8632111816227
 31
0.0
 11
-189.9824959350616
 21
-215.8067423174337
 31
0.0
 11
-190.0044417251676
 21
-215.749665639523
 31
0.0
 11
-190.041258051812
 21
-215.6977960401475
 31
0.0
 11
-190.0891937334925
 21
-215.6564175887981
 31
0.0
  0
SPLINE
  5
F2
330
47
100
AcDbEntity
  8
0
  6
Continuous
 62
     7
100
AcDbSpline
210
0.0
220
0.0
230
1.0
 70
     8
 71
     3
 72
    13
 73
     9
 74
     7
 42
0.000000001
 43
0.0000000001
 44
0.00000001
 40
0.0
 40
0.0
 40
0.0
 40
0.0
 40
0.0713180578850742
 40
0.1481474809628607
 40
0.2259190389084621
 40
0.299661103751038
 40
0.3662100582006352
 40
0.4263122104334117
 40
0.4263122104334117
 40
0.4263122104334117
 40
0.4263122104334117
 10
-193.7353483345653
 20
-218.1776306843807
 30
0.0
 10
-193.7325026707487
 20
-218.2014594171094
 30
0.0
 10
-193.7265914193236
 20
-218.2509583327275
 30
0.0
 10
-193.6869919695269
 20
-218.317246070504
 30
0.0
 10
-193.6317806306363
 20
-218.3709692815746
 30
0.0
 10
-193.5660511221911
 20
-218.4036979623255
 30
0.0
 10
-193.4966535754827
 20
-218.4133959190839
 30
0.0
 10
-193.4580079880903
 20
-218.3944508703098
 30
0.0
 10
-193.4396687666692
 20
-218.3854605105792
 30
0.0
 11
-193.7353483345653
 21
-218.1776306843807
 31
0.0
 11
-193.7221633963048
 21
-218.2477193614826
 31
0.0
 11
-193.6846177409475
 21
-218.3147498324606
 31
0.0
 11
-193.6284257670832
 21
-218.3685167134362
 31
0.0
 11
-193.5621432538084
 21
-218.4008357651377
 31
0.0
 11
-193.4958607405335
 21
-218.406784940318
 31
0.0
 11
-193.4396687666692
 21
-218.3854605105792
 31
0.0
  0
SPLINE
  5
F3
330
47
100
AcDbEntity
  8
0
  6
Continuous
 62
     7
100
AcDbSpline
210
0.0
220
0.0
230
1.0
 70
     8
 71
     3
 72
    11
 73
     7
 74
     5
 42
0.000000001
 43
0.0000000001
 44
0.00000001
 40
0.0
 40
0.0
 40
0.0
 40
0.0
 40
0.5440471188249655
 40
1.13594548061467
 40
1.808351964850245
 40
2.575409265919982
 40
2.575409265919982
 40
2.575409265919982
 40
2.575409265919982
 10
-213.6228437083618
 20
-207.2255942110326
 30
0.0
 10
-213.6028547042678
 20
-207.4077385413175
 30
0.0
 10
-213.5611185642375
 20
-207.7880475625844
 30
0.0
 10
-213.2422293641455
 20
-208.3172436075833
 30
0.0
 10
-212.7677739356519
 20
-208.8062332650482
 30
0.0
 10
-212.3598384418102
 20
-209.062286358212
 30
0.0
 10
-212.1424589506325
 20
-209.1987311843466
 30
0.0
 11
-213.6228437083618
 21
-207.2255942110326
 31
0.0
 11
-213.5265015709192
 21
-207.7610430536673
 31
0.0
 11
-213.2405697364636
 21
-208.2792965258716
 31
0.0
 11
-212.7742299909698
 21
-208.7637113536626
 31
0.0
 11
-212.1424589506325
 21
-209.1987311843466
 31
0.0
  0
SPLINE
  5
F4
330
47
100
AcDbEntity
  8
0
  6
Continuous
 62
     7
100
AcDbSpline
210
0.0
220
0.0
230
1.0
 70
     8
 71
     3
 72
    11
 73
     7
 74
     5
 42
0.000000001
 43
0.0000000001
 44
0.00000001
 40
0.0
 40
0.0
 40
0.0
 40
0.0
 40
0.4943320630282994
 40
0.94347074283525
 40
1.357687422612287
 40
1.752616068963703
 40
1.752616068963703
 40
1.752616068963703
 40
1.752616068963703
 10
-212.8189961310684
 20
-205.7255942110326
 30
0.0
 10
-212.9395245898124
 20
-205.8386783286176
 30
0.0
 10
-213.1695624081457
 20
-206.0545080700605
 30
0.0
 10
-213.4247934028886
 20
-206.4316531675225
 30
0.0
 10
-213.5915460561383
 20
-206.8230996234829
 30
0.0
 10
-213.6125782812278
 20
-207.0935785316932
 30
0.0
 10
-213.6228437083618
 20
-207.2255942110326
 30
0.0
 11
-212.8189961310684
 21
-205.7255942110326
 31
0.0
 11
-213.166120880354
 21
-206.0775439187165
 31
0.0
 11
-213.4183986660962
 21
-206.4491370757251
 31
0.0
 11
-213.5715128518415
 21
-206.8340156360026
 31
0.0
 11
-213.6228437083618
 21
-207.2255942110326
 31
0.0
  0
SPLINE
  5
F5
330
47
100
AcDbEntity
  8
0
  6
Continuous
 62
     7
100
AcDbSpline
210
0.0
220
0.0
230
1.0
 70
     8
 71
     3
 72
     9
 73
     5
 74
     3
 42
0.000000001
 43
0.0000000001
 44
0.00000001
 40
0.0
 40
0.0
 40
0.0
 40
0.0
 40
0.1226876828917891
 40
0.2379921758431607
 40
0.2379921758431607
 40
0.2379921758431607
 40
0.2379921758431607
 10
-168.783355663941
 20
-163.6854366163201
 30
0.0
 10
-168.8251558972002
 20
-163.6870114573335
 30
0.0
 10
-168.9062408739856
 20
-163.6900663862781
 30
0.0
 10
-168.9731485515557
 20
-163.7357457297535
 30
0.0
 10
-169.005564553852
 20
-163.7578768588984
 30
0.0
 11
-168.783355663941
 21
-163.6854366163201
 31
0.0
 11
-168.9049887164313
 21
-163.7014886734588
 31
0.0
 11
-169.005564553852
 21
-163.7578768588984
 31
0.0
  0
SPLINE
  5
F6
330
47
100
AcDbEntity
  8
0
  6
Continuous
 62
     7
100
AcDbSpline
210
0.0
220
0.0
230
1.0
 70
     8
 71
     3
 72
     9
 73
     5
 74
     3
 42
0.000000001
 43
0.0000000001
 44
0.00000001
 40
0.0
 40
0.0
 40
0.0
 40
0.0
 40
0.0465904923632176
 40
0.0931734727925322
 40
0.0931734727925322
 40
0.0931734727925322
 40
0.0931734727925322
 10
-168.690253040197
 20
-163.6890693474941
 30
0.0
 10
-168.7057711283231
 20
-163.6884570039887
 30
0.0
 10
-168.7368048033272
 20
-163.6872324356929
 30
0.0
 10
-168.7678395441831
 20
-163.6860351839412
 30
0.0
 10
-168.783355663941
 20
-163.6854366163201
 30
0.0
 11
-168.690253040197
 21
-163.6890693474941
 31
0.0
 11
-168.7368075714742
 21
-163.6872391572093
 31
0.0
 11
-168.783355663941
 21
-163.6854366163201
 31
0.0
  0
SPLINE
  5
F7
330
47
100
AcDbEntity
  8
0
  6
Continuous
 62
     7
100
AcDbSpline
210
0.0
220
0.0
230
1.0
 70
     8
 71
     3
 72
    11
 73
     7
 74
     5
 42
0.000000001
 43
0.0000000001
 44
0.00000001
 40
0.0
 40
0.0
 40
0.0
 40
0.0
 40
0.1068714191063447
 40
0.2118512245540309
 40
0.3120113603141648
 40
0.4054604357209721
 40
0.4054604357209721
 40
0.4054604357209721
 40
0.4054604357209721
 10
-168.3513932999146
 20
-163.8887129940688
 30
0.0
 10
-168.3740305144609
 20
-163.8610214394988
 30
0.0
 10
-168.4189042779526
 20
-163.8061284782177
 30
0.0
 10
-168.5037743003955
 20
-163.7445909124679
 30
0.0
 10
-168.5947590095462
 20
-163.7010390790032
 30
0.0
 10
-168.6591658723554
 20
-163.6929659741192
 30
0.0
 10
-168.690253040197
 20
-163.6890693474941
 30
0.0
 11
-168.3513932999146
 21
-163.8887129940688
 31
0.0
 11
-168.4225500716192
 21
-163.8089745835426
 31
0.0
 11
-168.5068423656322
 21
-163.7464000746547
 31
0.0
 11
-168.5982521612645
 21
-163.7054574001253
 31
0.0
 11
-168.690253040197
 21
-163.6890693474941
 31
0.0
  0
SPLINE
  5
F8
330
47
100
AcDbEntity
  8
0
  6
Continuous
 62
     7
100
AcDbSpline
210
0.0
220
0.0
230
1.0
 70
     8
 71
     3
 72
    11
 73
     7
 74
     5
 42
0.000000001
 43
0.0000000001
 44
0.00000001
 40
0.0
 40
0.0
 40
0.0
 40
0.0
 40
0.0412573781349665
 40
0.0860703783014395
 40
0.1357193319679948
 40
0.189018398985151
 40
0.189018398985151
 40
0.189018398985151
 40
0.189018398985151
 10
-168.2630433242861
 20
-164.1805834060835
 30
0.0
 10
-168.2539321011038
 20
-164.169936371
 30
0.0
 10
-168.2349244479265
 20
-164.1477247154813
 30
0.0
 10
-168.2288673351121
 20
-164.1008628089348
 30
0.0
 10
-168.2380378074753
 20
-164.0516740914388
 30
0.0
 10
-168.2561747127382
 20
-164.02220265103
 30
0.0
 10
-168.2655647019837
 20
-164.0069444660667
 30
0.0
 11
-168.2630433242861
 21
-164.1805834060835
 31
0.0
 11
-168.2391944507137
 21
-164.1469173584431
 31
0.0
 11
-168.2313513730251
 21
-164.1027960307229
 31
0.0
 11
-168.2405436068372
 21
-164.0540054399235
 31
0.0
 11
-168.2655647019837
 21
-164.0069444660667
 31
0.0
  0
SPLINE
  5
F9
330
47
100
AcDbEntity
  8
0
  6
Continuous
 62
     7
100
AcDbSpline
210
0.0
220
0.0
230
1.0
 70
     8
 71
     3
 72
     9
 73
     5
 74
     3
 42
0.000000001
 43
0.0000000001
 44
0.00000001
 40
0.0
 40
0.0
 40
0.0
 40
0.0
 40
0.8721973066436484
 40
1.73589220640809
 40
1.73589220640809
 40
1.73589220640809
 40
1.73589220640809
 10
-169.9885521779796
 20
-164.6091691129987
 30
0.0
 10
-170.2469292251521
 20
-164.4757279242601
 30
0.0
 10
-170.7611646014633
 20
-164.2101463842422
 30
0.0
 10
-171.2899577856147
 20
-163.9748858945393
 30
0.0
 10
-171.5530593663563
 20
-163.8578318121011
 30
0.0
 11
-169.9885521779796
 21
-164.6091691129987
 31
0.0
 11
-170.7673585154104
 21
-164.2165002565407
 31
0.0
 11
-171.5530593663563
 21
-163.8578318121011
 31
0.0
  0
SPLINE
  5
FA
330
47
100
AcDbEntity
  8
0
  6
Continuous
 62
     7
100
AcDbSpline
210
0.0
220
0.0
230
1.0
 70
     8
 71
     3
 72
     9
 73
     5
 74
     3
 42
0.000000001
 43
0.0000000001
 44
0.00000001
 40
0.0
 40
0.0
 40
0.0
 40
0.0
 40
0.083002746982361
 40
0.1704198857790651
 40
0.1704198857790651
 40
0.1704198857790651
 40
0.1704198857790651
 10
-163.0717869775597
 20
-164.18342697861
 30
0.0
 10
-163.048741157119
 20
-164.1672432174814
 30
0.0
 10
-163.0014238461467
 20
-164.1340150007647
 30
0.0
 10
-162.943824111767
 20
-164.1282915596497
 30
0.0
 10
-162.9142782379715
 20
-164.1253557214698
 30
0.0
 11
-163.0717869775597
 21
-164.18342697861
 31
0.0
 11
-163.0002103538145
 21
-164.1414002820245
 31
0.0
 11
-162.9142782379715
 21
-164.1253557214698
 31
0.0
  0
SPLINE
  5
FB
330
47
100
AcDbEntity
  8
0
  6
Continuous
 62
     7
100
AcDbSpline
210
0.0
220
0.0
230
1.0
 70
     8
 71
     3
 72
    13
 73
     9
 74
     7
 42
0.000000001
 43
0.0000000001
 44
0.00000001
 40
0.0
 40
0.0
 40
0.0
 40
0.0
 40
0.1236142667999368
 40
0.252448460263422
 40
0.3829666565022162
 40
0.5113165644560854
 40
0.6340550378350448
 40
0.7488839103163181
 40
0.7488839103163181
 40
0.7488839103163181
 40
0.7488839103163181
 10
-168.2361665867626
 20
-164.7142611611596
 30
0.0
 10
-168.2249241601528
 20
-164.7540677773259
 30
0.0
 10
-168.2019645528511
 20
-164.8353619405632
 30
0.0
 10
-168.1351611624093
 20
-164.9457387030595
 30
0.0
 10
-168.0493013950893
 20
-165.0432522837121
 30
0.0
 10
-167.9471047500922
 20
-165.120041602058
 30
0.0
 10
-167.836101996873
 20
-165.1745142624748
 30
0.0
 10
-167.7573792088142
 20
-165.1862400200856
 30
0.0
 10
-167.7193283172035
 20
-165.1919076923643
 30
0.0
 11
-168.2361665867626
 21
-164.7142611611596
 31
0.0
 11
-168.197385793566
 21
-164.8316346551195
 31
0.0
 11
-168.1324456079238
 21
-164.9429046961397
 31
0.0
 11
-168.0457712342046
 21
-165.0404882652417
 31
0.0
 11
-167.9432696716173
 21
-165.1177354605898
 31
0.0
 11
-167.8319260458179
 21
-165.1693816662988
 31
0.0
 11
-167.7193283172035
 21
-165.1919076923643
 31
0.0
  0
SPLINE
  5
FC
330
47
100
AcDbEntity
  8
0
  6
Continuous
 62
     7
100
AcDbSpline
210
0.0
220
0.0
230
1.0
 70
     8
 71
     3
 72
    13
 73
     9
 74
     7
 42
0.000000001
 43
0.0000000001
 44
0.00000001
 40
0.0
 40
0.0
 40
0.0
 40
0.0
 40
0.2332128192941652
 40
0.4831317981484187
 40
0.7404756512213193
 40
0.9937875848894676
 40
1.232772159960089
 40
1.451662882907239
 40
1.451662882907239
 40
1.451662882907239
 40
1.451662882907239
 10
-178.7813120793699
 20
-165.5418206507319
 30
0.0
 10
-178.7889176966139
 20
-165.4639245713677
 30
0.0
 10
-178.8046737728673
 20
-165.3025523429085
 30
0.0
 10
-178.9147737985941
 20
-165.0766188418068
 30
0.0
 10
-179.0739353608247
 20
-164.8767832049426
 30
0.0
 10
-179.2745470833694
 20
-164.7248608707322
 30
0.0
 10
-179.4963233423532
 20
-164.6268131752643
 30
0.0
 10
-179.6502562483578
 20
-164.6245589521564
 30
0.0
 10
-179.7238450300351
 20
-164.6234813109259
 30
0.0
 11
-178.7813120793699
 21
-165.5418206507319
 31
0.0
 11
-178.8171960940313
 21
-165.3113850701651
 31
0.0
 11
-178.9211286213468
 21
-165.0841021483308
 31
0.0
 11
-179.0823458302094
 21
-164.8835158293856
 31
0.0
 11
-179.2841461110924
 21
-164.7304028515202
 31
0.0
 11
-179.5056267351641
 21
-164.6406255598117
 31
0.0
 11
-179.7238450300351
 21
-164.6234813109259
 31
0.0
  0
SPLINE
  5
FD
330
47
100
AcDbEntity
  8
0
  6
Continuous
 62
     7
100
AcDbSpline
210
0.0
220
0.0
230
1.0
 70
     8
 71
     3
 72
    11
 73
     7
 74
     5
 42
0.000000001
 43
0.0000000001
 44
0.00000001
 40
0.0
 40
0.0
 40
0.0
 40
0.0
 40
1.148540858039034
 40
2.265364008276781
 40
3.359424538513333
 40
4.441580438425833
 40
4.441580438425833
 40
4.441580438425833
 40
4.441580438425833
 10
-180.3505386823755
 20
-164.6875274244234
 30
0.0
 10
-180.7301251425912
 20
-164.7429006503652
 30
0.0
 10
-181.4788155316287
 20
-164.8521179489138
 30
0.0
 10
-182.5430662901871
 20
-165.2164072918049
 30
0.0
 10
-183.5304668678559
 20
-165.7098889375411
 30
0.0
 10
-184.1015236345721
 20
-166.1599734364333
 30
0.0
 10
-184.3854900780261
 20
-166.3837846356731
 30
0.0
 11
-180.3505386823755
 21
-164.6875274244234
 31
0.0
 11
-181.4813210061278
 21
-164.8887174841801
 31
0.0
 11
-182.5407144021793
 21
-165.2422420018404
 31
0.0
 11
-183.5134454018431
 21
-165.7430042704111
 31
0.0
 11
-184.3854900780261
 21
-166.3837846356731
 31
0.0
  0
SPLINE
  5
FE
330
47
100
AcDbEntity
  8
0
  6
Continuous
 62
     7
100
AcDbSpline
210
0.0
220
0.0
230
1.0
 70
     8
 71
     3
 72
     9
 73
     5
 74
     3
 42
0.000000001
 43
0.0000000001
 44
0.00000001
 40
0.0
 40
0.0
 40
0.0
 40
0.0
 40
0.3151474849200328
 40
0.6299593536889576
 40
0.6299593536889576
 40
0.6299593536889576
 40
0.6299593536889576
 10
-179.7238450300351
 20
-164.6234813109259
 30
0.0
 10
-179.8283851130618
 20
-164.6338140349021
 30
0.0
 10
-180.0373539471968
 20
-164.6544684989241
 30
0.0
 10
-180.2461808560989
 20
-164.6765116905278
 30
0.0
 10
-180.3505386823755
 20
-164.6875274244234
 30
0.0
 11
-179.7238450300351
 21
-164.6234813109259
 31
0.0
 11
-180.0374297589955
 21
-164.6548270447377
 31
0.0
 11
-180.3505386823755
 21
-164.6875274244234
 31
0.0
  0
SPLINE
  5
FF
330
47
100
AcDbEntity
  8
0
  6
Continuous
 62
     7
100
AcDbSpline
210
0.0
220
0.0
230
1.0
 70
     8
 71
     3
 72
    11
 73
     7
 74
     5
 42
0.000000001
 43
0.0000000001
 44
0.00000001
 40
0.0
 40
0.0
 40
0.0
 40
0.0
 40
0.2649046302682478
 40
0.5468263398010426
 40
0.8392219000984418
 40
1.133373879017469
 40
1.133373879017469
 40
1.133373879017469
 40
1.133373879017469
 10
-178.7813120793699
 20
-165.6250627077795
 30
0.0
 10
-178.7742111778166
 20
-165.7135452039608
 30
0.0
 10
-178.7595532084711
 20
-165.8961941780855
 30
0.0
 10
-178.6529516889999
 20
-166.1584910598337
 30
0.0
 10
-178.4976156813733
 20
-166.4055348003141
 30
0.0
 10
-178.3542214206112
 20
-166.5395791173772
 30
0.0
 10
-178.2823095875214
 20
-166.6068019688566
 30
0.0
 11
-178.7813120793699
 21
-165.6250627077795
 31
0.0
 11
-178.7471482596451
 21
-165.8877551083561
 31
0.0
 11
-178.6471083168079
 21
-166.151330261904
 31
0.0
 11
-178.4883665557635
 21
-166.3968831445864
 31
0.0
 11
-178.2823095875214
 21
-166.6068019688566
 31
0.0
  0
SPLINE
  5
100
330
47
100
AcDbEntity
  8
0
  6
Continuous
 62
     7
100
AcDbSpline
210
0.0
220
0.0
230
1.0
 70
     8
 71
     3
 72
    17
 73
    13
 74
    11
 42
0.000000001
 43
0.0000000001
 44
0.00000001
 40
0.0
 40
0.0
 40
0.0
 40
0.0
 40
0.2919756750389916
 40
0.6405477673139071
 40
1.027323768187152
 40
1.429817276535016
 40
1.824018840764987
 40
2.186713626604992
 40
2.497918037922975
 40
2.744079511184347
 40
2.924363456098866
 40
3.066127163642429
 40
3.066127163642429
 40
3.066127163642429
 40
3.066127163642429
 10
-175.3705770943639
 20
-169.2308866979766
 30
0.0
 10
-175.4484823833699
 20
-169.2895469647712
 30
0.0
 10
-175.6193940845488
 20
-169.4182381727294
 30
0.0
 10
-175.9294949147821
 20
-169.5676549609417
 30
0.0
 10
-176.2843339394984
 20
-169.7020108152539
 30
0.0
 10
-176.6656056377502
 20
-169.805742407477
 30
0.0
 10
-177.0467492663112
 20
-169.8738606069884
 30
0.0
 10
-177.4017147881671
 20
-169.9014712528417
 30
0.0
 10
-177.7111978820372
 20
-169.8876266617174
 30
0.0
 10
-177.9474302907031
 20
-169.83309581151
 30
0.0
 10
-178.1299021177389
 20
-169.7382290520575
 30
0.0
 10
-178.1574769129451
 20
-169.6301273498066
 30
0.0
 10
-178.1696152000405
 20
-169.5825415423177
 30
0.0
 11
-175.3705770943639
 21
-169.2308866979766
 31
0.0
 11
-175.6089553110388
 21
-169.3994856743314
 31
0.0
 11
-175.9196152000405
 21
-169.5575772213433
 31
0.0
 11
-176.2813867358907
 21
-169.6943874210934
 31
0.0
 11
-176.6696152000405
 21
-169.8005932766939
 31
0.0
 11
-177.0578436641904
 21
-169.8689565173
 31
0.0
 11
-177.4196152000405
 21
-169.8948189082496
 31
0.0
 11
-177.7302750890422
 21
-169.8764173145992
 31
0.0
 11
-177.9686533057172
 21
-169.8150064341287
 31
0.0
 11
-178.1185035531921
 21
-169.7147706983799
 31
0.0
 11
-178.1696152000405
 21
-169.5825415423177
 31
0.0
  0
SPLINE
  5
101
330
47
100
AcDbEntity
  8
0
  6
Continuous
 62
     7
100
AcDbSpline
210
0.0
220
0.0
230
1.0
 70
     8
 71
     3
 72
     9
 73
     5
 74
     3
 42
0.000000001
 43
0.0000000001
 44
0.00000001
 40
0.0
 40
0.0
 40
0.0
 40
0.0
 40
0.1634108337494408
 40
0.3882451415429878
 40
0.3882451415429878
 40
0.3882451415429878
 40
0.3882451415429878
 10
-175.1696152000405
 20
-168.9080581685049
 30
0.0
 10
-175.1825977591341
 20
-168.9621375089401
 30
0.0
 10
-175.2134428284601
 20
-169.0906237265634
 30
0.0
 10
-175.3129513207188
 20
-169.1794481354036
 30
0.0
 10
-175.3705770943639
 20
-169.2308866979766
 30
0.0
 11
-175.1696152000405
 21
-168.9080581685049
 31
0.0
 11
-175.2207268468891
 21
-169.0632699619055
 31
0.0
 11
-175.3705770943639
 21
-169.2308866979766
 31
0.0
  0
SPLINE
  5
102
330
47
100
AcDbEntity
  8
0
  6
Continuous
 62
     7
100
AcDbSpline
210
0.0
220
0.0
230
1.0
 70
     8
 71
     3
 72
    19
 73
    15
 74
    13
 42
0.000000001
 43
0.0000000001
 44
0.00000001
 40
0.0
 40
0.0
 40
0.0
 40
0.0
 40
0.1634108454448662
 40
0.3882451472485502
 40
0.6802208143081407
 40
1.0287929096145
 40
1.415568913058163
 40
1.818062423367995
 40
2.212263988993727
 40
2.574958775791948
 40
2.886163187758414
 40
3.132324661398894
 40
3.312608605025786
 40
3.454372316631257
 40
3.454372316631257
 40
3.454372316631257
 40
3.454372316631257
 10
-178.1696152000405
 20
-169.5825415423177
 30
0.0
 10
-178.1565419804526
 20
-169.528702479473
 30
0.0
 10
-178.1254815275498
 20
-169.4007871355782
 30
0.0
 10
-177.9534511798283
 20
-169.2390343617139
 30
0.0
 10
-177.718860794305
 20
-169.0749470495516
 30
0.0
 10
-177.410049972639
 20
-168.9221112638361
 30
0.0
 10
-177.054804477554
 20
-168.788832699103
 30
0.0
 10
-176.6736493349392
 20
-168.6847921860239
 30
0.0
 10
-176.2924751541191
 20
-168.616754957437
 30
0.0
 10
-175.9375169293021
 20
-168.589124970033
 30
0.0
 10
-175.6280322624185
 20
-168.6029737270092
 30
0.0
 10
-175.3918001553352
 20
-168.6575037830972
 30
0.0
 10
-175.2093282731646
 20
-168.7523706737819
 30
0.0
 10
-175.1817534853006
 20
-168.8604723654387
 30
0.0
 10
-175.1696152000405
 20
-168.9080581685049
 30
0.0
 11
-178.1696152000405
 21
-169.5825415423177
 31
0.0
 11
-178.118503553192
 21
-169.4273297489171
 31
0.0
 11
-177.9686533057172
 21
-169.259713012846
 31
0.0
 11
-177.7302750890422
 21
-169.0911140364912
 31
0.0
 11
-177.4196152000405
 21
-168.9330224894794
 31
0.0
 11
-177.0578436641903
 21
-168.7962122897292
 31
0.0
 11
-176.6696152000405
 21
-168.6900064341286
 31
0.0
 11
-176.2813867358907
 21
-168.6216431935226
 31
0.0
 11
-175.9196152000405
 21
-168.595780802573
 31
0.0
 11
-175.6089553110388
 21
-168.6141823962234
 31
0.0
 11
-175.3705770943639
 21
-168.6755932766939
 31
0.0
 11
-175.220726846889
 21
-168.7758290124427
 31
0.0
 11
-175.1696152000405
 21
-168.9080581685049
 31
0.0
  0
SPLINE
  5
103
330
47
100
AcDbEntity
  8
0
  6
Continuous
 62
     7
100
AcDbSpline
210
0.0
220
0.0
230
1.0
 70
     8
 71
     3
 72
    17
 73
    13
 74
    11
 42
0.000000001
 43
0.0000000001
 44
0.00000001
 40
0.0
 40
0.0
 40
0.0
 40
0.0
 40
0.2919756750389916
 40
0.6405477673138942
 40
1.027323768187149
 40
1.429817276535028
 40
1.824018840764989
 40
2.186713626604992
 40
2.497918037922975
 40
2.744079511184347
 40
2.924363456098834
 40
3.066127163642391
 40
3.066127163642391
 40
3.066127163642391
 40
3.066127163642391
 10
-173.1205770943639
 20
-167.2823295394616
 30
0.0
 10
-173.1984823833699
 20
-167.3409898062562
 30
0.0
 10
-173.3693940845488
 20
-167.4696810142145
 30
0.0
 10
-173.6794949147821
 20
-167.6190978024267
 30
0.0
 10
-174.0343339394983
 20
-167.7534536567389
 30
0.0
 10
-174.4156056377502
 20
-167.8571852489621
 30
0.0
 10
-174.7967492663112
 20
-167.9253034484735
 30
0.0
 10
-175.1517147881671
 20
-167.9529140943266
 30
0.0
 10
-175.4611978820373
 20
-167.9390695032024
 30
0.0
 10
-175.6974302907031
 20
-167.884538652995
 30
0.0
 10
-175.8799021177388
 20
-167.7896718935424
 30
0.0
 10
-175.9074769129451
 20
-167.6815701912917
 30
0.0
 10
-175.9196152000405
 20
-167.6339843838027
 30
0.0
 11
-173.1205770943639
 21
-167.2823295394616
 31
0.0
 11
-173.3589553110388
 21
-167.4509285158164
 31
0.0
 11
-173.6696152000405
 21
-167.6090200628283
 31
0.0
 11
-174.0313867358907
 21
-167.7458302625784
 31
0.0
 11
-174.4196152000405
 21
-167.852036118179
 31
0.0
 11
-174.8078436641904
 21
-167.920399358785
 31
0.0
 11
-175.1696152000405
 21
-167.9462617497346
 31
0.0
 11
-175.4802750890422
 21
-167.9278601560842
 31
0.0
 11
-175.7186533057172
 21
-167.8664492756137
 31
0.0
 11
-175.868503553192
 21
-167.7662135398649
 31
0.0
 11
-175.9196152000405
 21
-167.6339843838027
 31
0.0
  0
SPLINE
  5
104
330
47
100
AcDbEntity
  8
0
  6
Continuous
 62
     7
100
AcDbSpline
210
0.0
220
0.0
230
1.0
 70
     8
 71
     3
 72
     9
 73
     5
 74
     3
 42
0.000000001
 43
0.0000000001
 44
0.00000001
 40
0.0
 40
0.0
 40
0.0
 40
0.0
 40
0.163410833749423
 40
0.3882451415430291
 40
0.3882451415430291
 40
0.3882451415430291
 40
0.3882451415430291
 10
-172.9196152000405
 20
-166.9595010099899
 30
0.0
 10
-172.9325977591341
 20
-167.0135803504251
 30
0.0
 10
-172.96344282846
 20
-167.1420665680484
 30
0.0
 10
-173.0629513207188
 20
-167.2308909768887
 30
0.0
 10
-173.1205770943639
 20
-167.2823295394616
 30
0.0
 11
-172.9196152000405
 21
-166.9595010099899
 31
0.0
 11
-172.970726846889
 21
-167.1147128033905
 31
0.0
 11
-173.1205770943639
 21
-167.2823295394616
 31
0.0
  0
SPLINE
  5
105
330
47
100
AcDbEntity
  8
0
  6
Continuous
 62
     7
100
AcDbSpline
210
0.0
220
0.0
230
1.0
 70
     8
 71
     3
 72
    19
 73
    15
 74
    13
 42
0.000000001
 43
0.0000000001
 44
0.00000001
 40
0.0
 40
0.0
 40
0.0
 40
0.0
 40
0.1634108454447582
 40
0.3882451472484845
 40
0.6802208143080914
 40
1.028792909614451
 40
1.415568913058104
 40
1.818062423367936
 40
2.212263988993658
 40
2.57495877579188
 40
2.886163187758345
 40
3.13232466139881
 40
3.312608605025734
 40
3.454372316631152
 40
3.454372316631152
 40
3.454372316631152
 40
3.454372316631152
 10
-175.9196152000405
 20
-167.6339843838027
 30
0.0
 10
-175.9065419804526
 20
-167.580145320958
 30
0.0
 10
-175.8754815275497
 20
-167.4522299770633
 30
0.0
 10
-175.7034511798283
 20
-167.2904772031989
 30
0.0
 10
-175.4688607943051
 20
-167.1263898910368
 30
0.0
 10
-175.1600499726389
 20
-166.9735541053211
 30
0.0
 10
-174.804804477554
 20
-166.840275540588
 30
0.0
 10
-174.4236493349393
 20
-166.7362350275089
 30
0.0
 10
-174.0424751541192
 20
-166.6681977989222
 30
0.0
 10
-173.687516929302
 20
-166.6405678115181
 30
0.0
 10
-173.3780322624185
 20
-166.6544165684942
 30
0.0
 10
-173.1418001553351
 20
-166.7089466245822
 30
0.0
 10
-172.9593282731647
 20
-166.8038135152669
 30
0.0
 10
-172.9317534853005
 20
-166.9119152069237
 30
0.0
 10
-172.9196152000405
 20
-166.9595010099899
 30
0.0
 11
-175.9196152000405
 21
-167.6339843838027
 31
0.0
 11
-175.868503553192
 21
-167.4787725904023
 31
0.0
 11
-175.7186533057172
 21
-167.3111558543311
 31
0.0
 11
-175.4802750890422
 21
-167.1425568779763
 31
0.0
 11
-175.1696152000405
 21
-166.9844653309644
 31
0.0
 11
-174.8078436641903
 21
-166.8476551312143
 31
0.0
 11
-174.4196152000405
 21
-166.7414492756137
 31
0.0
 11
-174.0313867358907
 21
-166.6730860350077
 31
0.0
 11
-173.6696152000405
 21
-166.647223644058
 31
0.0
 11
-173.3589553110388
 21
-166.6656252377084
 31
0.0
 11
-173.1205770943639
 21
-166.7270361181789
 31
0.0
 11
-172.970726846889
 21
-166.8272718539277
 31
0.0
 11
-172.9196152000405
 21
-166.9595010099899
 31
0.0
  0
SPLINE
  5
106
330
47
100
AcDbEntity
  8
0
  6
Continuous
 62
     7
100
AcDbSpline
210
0.0
220
0.0
230
1.0
 70
     8
 71
     3
 72
     9
 73
     5
 74
     3
 42
0.000000001
 43
0.0000000001
 44
0.00000001
 40
0.0
 40
0.0
 40
0.0
 40
0.0
 40
0.8721973066435722
 40
1.735892206408014
 40
1.735892206408014
 40
1.735892206408014
 40
1.735892206408014
 10
-170.6885521779797
 20
-165.2153868956478
 30
0.0
 10
-170.9469292251521
 20
-165.0819457069092
 30
0.0
 10
-171.4611646014633
 20
-164.8163641668912
 30
0.0
 10
-171.9899577856146
 20
-164.5811036771884
 30
0.0
 10
-172.2530593663563
 20
-164.4640495947502
 30
0.0
 11
-170.6885521779797
 21
-165.2153868956478
 31
0.0
 11
-171.4673585154104
 21
-164.8227180391898
 31
0.0
 11
-172.2530593663563
 21
-164.4640495947502
 31
0.0
  0
SPLINE
  5
107
330
47
100
AcDbEntity
  8
0
  6
Continuous
 62
     7
100
AcDbSpline
210
0.0
220
0.0
230
1.0
 70
     8
 71
     3
 72
    11
 73
     7
 74
     5
 42
0.000000001
 43
0.0000000001
 44
0.00000001
 40
0.0
 40
0.0
 40
0.0
 40
0.0
 40
0.1068714191062175
 40
0.2118512245539206
 40
0.3120113603140661
 40
0.4054604357208735
 40
0.4054604357208735
 40
0.4054604357208735
 40
0.4054604357208735
 10
-176.8013932999146
 20
-171.2066276560472
 30
0.0
 10
-176.8240305144609
 20
-171.1789361014773
 30
0.0
 10
-176.8689042779527
 20
-171.1240431401963
 30
0.0
 10
-176.9537743003955
 20
-171.0625055744464
 30
0.0
 10
-177.0447590095462
 20
-171.0189537409818
 30
0.0
 10
-177.1091658723554
 20
-171.0108806360977
 30
0.0
 10
-177.140253040197
 20
-171.0069840094726
 30
0.0
 11
-176.8013932999146
 21
-171.2066276560472
 31
0.0
 11
-176.8725500716192
 21
-171.1268892455212
 31
0.0
 11
-176.9568423656322
 21
-171.0643147366332
 31
0.0
 11
-177.0482521612645
 21
-171.0233720621038
 31
0.0
 11
-177.140253040197
 21
-171.0069840094726
 31
0.0
  0
SPLINE
  5
108
330
47
100
AcDbEntity
  8
0
  6
Continuous
 62
     7
100
AcDbSpline
210
0.0
220
0.0
230
1.0
 70
     8
 71
     3
 72
     9
 73
     5
 74
     3
 42
0.000000001
 43
0.0000000001
 44
0.00000001
 40
0.0
 40
0.0
 40
0.0
 40
0.0
 40
0.0443142670452258
 40
0.0851646185488787
 40
0.0851646185488787
 40
0.0851646185488787
 40
0.0851646185488787
 10
-176.7936472319137
 20
-171.5188945401538
 30
0.0
 10
-176.7784635893329
 20
-171.5199376611699
 30
0.0
 10
-176.7492831676937
 20
-171.5219423465587
 30
0.0
 10
-176.7247912146548
 20
-171.5060980202575
 30
0.0
 10
-176.7130433242861
 20
-171.498498068062
 30
0.0
 11
-176.7936472319137
 21
-171.5188945401538
 31
0.0
 11
-176.7493657083673
 21
-171.5171912702936
 31
0.0
 11
-176.7130433242861
 21
-171.498498068062
 31
0.0
  0
SPLINE
  5
109
330
47
100
AcDbEntity
  8
0
  6
Continuous
 62
     7
100
AcDbSpline
210
0.0
220
0.0
230
1.0
 70
     8
 71
     3
 72
     9
 73
     5
 74
     3
 42
0.000000001
 43
0.0000000001
 44
0.00000001
 40
0.0
 40
0.0
 40
0.0
 40
0.0
 40
0.1347351597551529
 40
0.2806984683898507
 40
0.2806984683898507
 40
0.2806984683898507
 40
0.2806984683898507
 10
-177.455564553852
 20
-171.0757915208769
 30
0.0
 10
-177.4859570375532
 20
-171.110492987167
 30
0.0
 10
-177.5492747446267
 20
-171.182787774591
 30
0.0
 10
-177.5571534830075
 20
-171.2788194721976
 30
0.0
 10
-177.5612504203902
 20
-171.3287559938862
 30
0.0
 11
-177.455564553852
 21
-171.0757915208769
 31
0.0
 11
-177.5339688796692
 21
-171.185364900611
 31
0.0
 11
-177.5612504203902
 21
-171.3287559938862
 31
0.0
  0
SPLINE
  5
10A
330
47
100
AcDbEntity
  8
0
  6
Continuous
 62
     7
100
AcDbSpline
210
0.0
220
0.0
230
1.0
 70
     8
 71
     3
 72
     9
 73
     5
 74
     3
 42
0.000000001
 43
0.0000000001
 44
0.00000001
 40
0.0
 40
0.0
 40
0.0
 40
0.0
 40
0.1226876828917327
 40
0.23799217584314
 40
0.23799217584314
 40
0.23799217584314
 40
0.23799217584314
 10
-177.233355663941
 20
-171.0033512782986
 30
0.0
 10
-177.2751558972002
 20
-171.004926119312
 30
0.0
 10
-177.3562408739855
 20
-171.0079810482566
 30
0.0
 10
-177.4231485515557
 20
-171.053660391732
 30
0.0
 10
-177.455564553852
 20
-171.0757915208769
 30
0.0
 11
-177.233355663941
 21
-171.0033512782986
 31
0.0
 11
-177.3549887164313
 21
-171.0194033354373
 31
0.0
 11
-177.455564553852
 21
-171.0757915208769
 31
0.0
  0
SPLINE
  5
10B
330
47
100
AcDbEntity
  8
0
  6
Continuous
 62
     7
100
AcDbSpline
210
0.0
220
0.0
230
1.0
 70
     8
 71
     3
 72
     9
 73
     5
 74
     3
 42
0.000000001
 43
0.0000000001
 44
0.00000001
 40
0.0
 40
0.0
 40
0.0
 40
0.0
 40
0.0465904923632198
 40
0.0931734727925606
 40
0.0931734727925606
 40
0.0931734727925606
 40
0.0931734727925606
 10
-177.140253040197
 20
-171.0069840094726
 30
0.0
 10
-177.1557711283232
 20
-171.0063716659673
 30
0.0
 10
-177.1868048033272
 20
-171.0051470976713
 30
0.0
 10
-177.2178395441831
 20
-171.0039498459196
 30
0.0
 10
-177.233355663941
 20
-171.0033512782986
 30
0.0
 11
-177.140253040197
 21
-171.0069840094726
 31
0.0
 11
-177.1868075714742
 21
-171.0051538191877
 31
0.0
 11
-177.233355663941
 21
-171.0033512782986
 31
0.0
  0
SPLINE
  5
10C
330
47
100
AcDbEntity
  8
0
  6
Continuous
 62
     7
100
AcDbSpline
210
0.0
220
0.0
230
1.0
 70
     8
 71
     3
 72
     9
 73
     5
 74
     3
 42
0.000000001
 43
0.0000000001
 44
0.00000001
 40
0.0
 40
0.0
 40
0.0
 40
0.0
 40
1.233754052511567
 40
2.451126755756603
 40
2.451126755756603
 40
2.451126755756603
 40
2.451126755756603
 10
-177.5612504203902
 20
-172.0545035320879
 30
0.0
 10
-177.9215552643741
 20
-171.8558481613507
 30
0.0
 10
-178.6373809614264
 20
-171.4611751132784
 30
0.0
 10
-179.3828272151691
 20
-171.1258046655899
 30
0.0
 10
-179.7530593663563
 20
-170.9592401231335
 30
0.0
 11
-177.5612504203902
 21
-172.0545035320879
 31
0.0
 11
-178.6496694069524
 21
-171.4735619064086
 31
0.0
 11
-179.7530593663563
 21
-170.9592401231335
 31
0.0
  0
SPLINE
  5
10D
330
47
100
AcDbEntity
  8
0
  6
Continuous
 62
     7
100
AcDbSpline
210
0.0
220
0.0
230
1.0
 70
     8
 71
     3
 72
     9
 73
     5
 74
     3
 42
0.000000001
 43
0.0000000001
 44
0.00000001
 40
0.0
 40
0.0
 40
0.0
 40
0.0
 40
0.0830027469825049
 40
0.1704198857792162
 40
0.1704198857792162
 40
0.1704198857792162
 40
0.1704198857792162
 10
-171.5217869775597
 20
-171.5013416405885
 30
0.0
 10
-171.498741157119
 20
-171.4851578794599
 30
0.0
 10
-171.4514238461466
 20
-171.4519296627433
 30
0.0
 10
-171.3938241117673
 20
-171.4462062216268
 30
0.0
 10
-171.3642782379719
 20
-171.443270383446
 30
0.0
 11
-171.5217869775597
 21
-171.5013416405885
 31
0.0
 11
-171.4502103538145
 21
-171.4593149440027
 31
0.0
 11
-171.3642782379719
 21
-171.443270383446
 31
0.0
  0
SPLINE
  5
10E
330
47
100
AcDbEntity
  8
0
  6
Continuous
 62
     7
100
AcDbSpline
210
0.0
220
0.0
230
1.0
 70
     8
 71
     3
 72
     9
 73
     5
 74
     3
 42
0.000000001
 43
0.0000000001
 44
0.00000001
 40
0.0
 40
0.0
 40
0.0
 40
0.0
 40
0.0634454740503202
 40
0.1249986379716606
 40
0.1249986379716606
 40
0.1249986379716606
 40
0.1249986379716606
 10
-171.5904193418535
 20
-171.6045108220189
 30
0.0
 10
-171.5822601396578
 20
-171.5847487596746
 30
0.0
 10
-171.5661850727089
 20
-171.5458140635847
 30
0.0
 10
-171.536436228658
 20
-171.5160154071983
 30
0.0
 10
-171.5217869775597
 20
-171.5013416405885
 30
0.0
 11
-171.5904193418535
 21
-171.6045108220189
 31
0.0
 11
-171.5624189973308
 21
-171.547578326456
 31
0.0
 11
-171.5217869775597
 21
-171.5013416405885
 31
0.0
  0
SPLINE
  5
10F
330
47
100
AcDbEntity
  8
0
  6
Continuous
 62
     7
100
AcDbSpline
210
0.0
220
0.0
230
1.0
 70
     8
 71
     3
 72
    11
 73
     7
 74
     5
 42
0.000000001
 43
0.0000000001
 44
0.00000001
 40
0.0
 40
0.0
 40
0.0
 40
0.0
 40
0.0412573781349762
 40
0.0860703783014722
 40
0.1357193319680048
 40
0.1890183989851611
 40
0.1890183989851611
 40
0.1890183989851611
 40
0.1890183989851611
 10
-176.7130433242861
 20
-171.498498068062
 30
0.0
 10
-176.7039321011038
 20
-171.4878510329785
 30
0.0
 10
-176.6849244479264
 20
-171.4656393774599
 30
0.0
 10
-176.6788673351121
 20
-171.4187774709132
 30
0.0
 10
-176.6880378074753
 20
-171.3695887534173
 30
0.0
 10
-176.7061747127383
 20
-171.3401173130085
 30
0.0
 10
-176.7155647019837
 20
-171.3248591280452
 30
0.0
 11
-176.7130433242861
 21
-171.498498068062
 31
0.0
 11
-176.6891944507136
 21
-171.4648320204216
 31
0.0
 11
-176.6813513730251
 21
-171.4207106927014
 31
0.0
 11
-176.6905436068372
 21
-171.371920101902
 31
0.0
 11
-176.7155647019837
 21
-171.3248591280452
 31
0.0
  0
SPLINE
  5
110
330
47
100
AcDbEntity
  8
0
  6
Continuous
 62
     7
100
AcDbSpline
210
0.0
220
0.0
230
1.0
 70
     8
 71
     3
 72
    11
 73
     7
 74
     5
 42
0.000000001
 43
0.0000000001
 44
0.00000001
 40
0.0
 40
0.0
 40
0.0
 40
0.0
 40
0.2388711490252692
 40
0.4721486910460366
 40
0.6920395425366012
 40
0.8944663314387933
 40
0.8944663314387933
 40
0.8944663314387933
 40
0.8944663314387933
 10
-185.9126908068891
 20
-171.0409754052833
 30
0.0
 10
-185.9636411971586
 20
-170.9792601787396
 30
0.0
 10
-186.064348891355
 20
-170.8572749112517
 30
0.0
 10
-186.2576367493405
 20
-170.7273130678026
 30
0.0
 10
-186.4639199504248
 20
-170.6435749701446
 30
0.0
 10
-186.6058260801638
 20
-170.6427522224217
 30
0.0
 10
-186.6738450300351
 20
-170.6423578672277
 30
0.0
 11
-185.9126908068891
 21
-171.0409754052833
 31
0.0
 11
-186.073518744018
 21
-170.8643577377472
 31
0.0
 11
-186.2656204718861
 21
-170.7320122094363
 31
0.0
 11
-186.4718613997447
 21
-170.6557451282395
 31
0.0
 11
-186.6738450300351
 21
-170.6423578672277
 31
0.0
  0
SPLINE
  5
111
330
47
100
AcDbEntity
  8
0
  6
Continuous
 62
     7
100
AcDbSpline
210
0.0
220
0.0
230
1.0
 70
     8
 71
     3
 72
     9
 73
     5
 74
     3
 42
0.000000001
 43
0.0000000001
 44
0.00000001
 40
0.0
 40
0.0
 40
0.0
 40
0.0
 40
0.3151474849200667
 40
0.6299593536889886
 40
0.6299593536889886
 40
0.6299593536889886
 40
0.6299593536889886
 10
-186.6738450300351
 20
-170.6423578672277
 30
0.0
 10
-186.7783851130619
 20
-170.652690591204
 30
0.0
 10
-186.9873539471968
 20
-170.673345055226
 30
0.0
 10
-187.1961808560989
 20
-170.6953882468297
 30
0.0
 10
-187.3005386823755
 20
-170.7064039807252
 30
0.0
 11
-186.6738450300351
 21
-170.6423578672277
 31
0.0
 11
-186.9874297589955
 21
-170.6737036010396
 31
0.0
 11
-187.3005386823755
 21
-170.7064039807252
 31
0.0
  0
SPLINE
  5
112
330
47
100
AcDbEntity
  8
0
  6
Continuous
 62
     7
100
AcDbSpline
210
0.0
220
0.0
230
1.0
 70
     8
 71
     3
 72
     9
 73
     5
 74
     3
 42
0.000000001
 43
0.0000000001
 44
0.00000001
 40
0.0
 40
0.0
 40
0.0
 40
0.0
 40
0.8914872818890753
 40
1.7629605212316
 40
1.7629605212316
 40
1.7629605212316
 40
1.7629605212316
 10
-187.3005386823755
 20
-170.7064039807252
 30
0.0
 10
-187.5956949395992
 20
-170.7455886396712
 30
0.0
 10
-188.179381141655
 20
-170.8230782748362
 30
0.0
 10
-188.742041264845
 20
-170.9964891197446
 30
0.0
 10
-189.0201775192278
 20
-171.0822102268244
 30
0.0
 11
-187.3005386823755
 21
-170.7064039807252
 31
0.0
 11
-188.1806309057533
 21
-170.8484858342923
 31
0.0
 11
-189.0201775192278
 21
-171.0822102268244
 31
0.0
  0
SPLINE
  5
113
330
47
100
AcDbEntity
  8
0
  6
Continuous
 62
     7
100
AcDbSpline
210
0.0
220
0.0
230
1.0
 70
     8
 71
     3
 72
    13
 73
     9
 74
     7
 42
0.000000001
 43
0.0000000001
 44
0.00000001
 40
0.0
 40
0.0
 40
0.0
 40
0.0
 40
0.123614266799919
 40
0.2524484602634963
 40
0.3829666565022905
 40
0.5113165644561027
 40
0.6340550378350621
 40
0.7488839103163075
 40
0.7488839103163075
 40
0.7488839103163075
 40
0.7488839103163075
 10
-176.6861665867626
 20
-172.0321758231381
 30
0.0
 10
-176.6749241601528
 20
-172.0719824393043
 30
0.0
 10
-176.6519645528512
 20
-172.1532766025418
 30
0.0
 10
-176.5851611624092
 20
-172.263653365038
 30
0.0
 10
-176.4993013950893
 20
-172.3611669456907
 30
0.0
 10
-176.3971047500921
 20
-172.4379562640365
 30
0.0
 10
-176.286101996873
 20
-172.4924289244533
 30
0.0
 10
-176.2073792088142
 20
-172.504154682064
 30
0.0
 10
-176.1693283172035
 20
-172.5098223543428
 30
0.0
 11
-176.6861665867626
 21
-172.0321758231381
 31
0.0
 11
-176.6473857935661
 21
-172.149549317098
 31
0.0
 11
-176.5824456079238
 21
-172.2608193581182
 31
0.0
 11
-176.4957712342045
 21
-172.3584029272203
 31
0.0
 11
-176.3932696716172
 21
-172.4356501225683
 31
0.0
 11
-176.2819260458179
 21
-172.4872963282772
 31
0.0
 11
-176.1693283172035
 21
-172.5098223543428
 31
0.0
  0
SPLINE
  5
114
330
47
100
AcDbEntity
  8
0
  6
Continuous
 62
     7
100
AcDbSpline
210
0.0
220
0.0
230
1.0
 70
     8
 71
     3
 72
     9
 73
     5
 74
     3
 42
0.000000001
 43
0.0000000001
 44
0.00000001
 40
0.0
 40
0.0
 40
0.0
 40
0.0
 40
0.1202402196162588
 40
0.2487564319094126
 40
0.2487564319094126
 40
0.2487564319094126
 40
0.2487564319094126
 10
-171.4350462166554
 20
-172.7341447518981
 30
0.0
 10
-171.4690314142743
 20
-172.757061250104
 30
0.0
 10
-171.5393409783785
 20
-172.804471544338
 30
0.0
 10
-171.6242902553477
 20
-172.8054894125297
 30
0.0
 10
-171.6681780043174
 20
-172.8060152688266
 30
0.0
 11
-171.4350462166554
 21
-172.7341447518981
 31
0.0
 11
-171.5404222655406
 21
-172.7920550204607
 31
0.0
 11
-171.6681780043174
 21
-172.8060152688266
 31
0.0
  0
SPLINE
  5
115
330
47
100
AcDbEntity
  8
0
  6
Continuous
 62
     7
100
AcDbSpline
210
0.0
220
0.0
230
1.0
 70
     8
 71
     3
 72
    11
 73
     7
 74
     5
 42
0.000000001
 43
0.0000000001
 44
0.00000001
 40
0.0
 40
0.0
 40
0.0
 40
0.0
 40
0.1037386295602442
 40
0.2007566184919734
 40
0.2919289971233938
 40
0.3796590288845884
 40
0.3796590288845884
 40
0.3796590288845884
 40
0.3796590288845884
 10
-171.3397298301423
 20
-172.3839918201553
 30
0.0
 10
-171.3345497591215
 20
-172.4183566850479
 30
0.0
 10
-171.3245252191441
 20
-172.4848601102293
 30
0.0
 10
-171.3383374034472
 20
-172.5822666338511
 30
0.0
 10
-171.3729697154399
 20
-172.6695014079596
 30
0.0
 10
-171.414621191193
 20
-172.7128751653738
 30
0.0
 10
-171.4350462166554
 20
-172.7341447518981
 30
0.0
 11
-171.3397298301423
 21
-172.3839918201553
 31
0.0
 11
-171.3294026337816
 21
-172.487215133078
 31
0.0
 11
-171.3425253090905
 21
-172.5833415396404
 31
0.0
 11
-171.3783873439536
 21
-172.6671646727611
 31
0.0
 11
-171.4350462166554
 21
-172.7341447518981
 31
0.0
  0
SPLINE
  5
116
330
47
100
AcDbEntity
  8
0
  6
Continuous
 62
     7
100
AcDbSpline
210
0.0
220
0.0
230
1.0
 70
     8
 71
     3
 72
    13
 73
     9
 74
     7
 42
0.000000001
 43
0.0000000001
 44
0.00000001
 40
0.0
 40
0.0
 40
0.0
 40
0.0
 40
0.0452473669917329
 40
0.0952732505765931
 40
0.1486676078315049
 40
0.2026744199399048
 40
0.2543151073634121
 40
0.3015072955519745
 40
0.3015072955519745
 40
0.3015072955519745
 40
0.3015072955519745
 10
-171.6098719665813
 20
-171.6608332472471
 30
0.0
 10
-171.6129045162976
 20
-171.6757855269194
 30
0.0
 10
-171.6192898647606
 20
-171.7072691792581
 30
0.0
 10
-171.6060587316595
 20
-171.7565656933144
 30
0.0
 10
-171.5797227233425
 20
-171.802472358734
 30
0.0
 10
-171.5413761335039
 20
-171.8397744437393
 30
0.0
 10
-171.4961264494911
 20
-171.8659101576417
 30
0.0
 10
-171.4630190763362
 20
-171.869159161578
 30
0.0
 10
-171.4472104752934
 20
-171.8707105371706
 30
0.0
 11
-171.6098719665813
 21
-171.6608332472471
 31
0.0
 11
-171.6156169128915
 21
-171.7057144237491
 31
0.0
 11
-171.6044639951596
 21
-171.7544812348552
 31
0.0
 11
-171.5778656452086
 21
-171.8007790267326
 31
0.0
 11
-171.5392885793641
 21
-171.8385751376497
 31
0.0
 11
-171.4937591726153
 21
-171.8629438459242
 31
0.0
 11
-171.4472104752934
 21
-171.8707105371706
 31
0.0
  0
SPLINE
  5
117
330
47
100
AcDbEntity
  8
0
  6
Continuous
 62
     7
100
AcDbSpline
210
0.0
220
0.0
230
1.0
 70
     8
 71
     3
 72
    13
 73
     9
 74
     7
 42
0.000000001
 43
0.0000000001
 44
0.00000001
 40
0.0
 40
0.0
 40
0.0
 40
0.0
 40
2.642437459013074
 40
5.299378468264033
 40
7.950370590181665
 40
10.57524523302265
 40
13.155099070765
 40
15.67328703235324
 40
15.67328703235324
 40
15.67328703235324
 40
15.67328703235324
 10
-168.927791301789
 20
-181.8351878762204
 30
0.0
 10
-169.4046009468062
 20
-181.093697109411
 30
0.0
 10
-170.3608373147811
 20
-179.6066457625724
 30
0.0
 10
-172.0697497632477
 20
-177.5725284707472
 30
0.0
 10
-173.9515717290736
 20
-175.7093921610878
 30
0.0
 10
-175.9977259756227
 20
-174.0694328797267
 30
0.0
 10
-178.1559943976777
 20
-172.6525834568071
 30
0.0
 10
-179.6935705445427
 20
-171.9248990634279
 30
0.0
 10
-180.4530593663563
 20
-171.5654579057826
 30
0.0
 11
-168.927791301789
 21
-181.8351878762204
 31
0.0
 11
-170.4036833390415
 21
-179.6433351392722
 31
0.0
 11
-172.1006501659132
 21
-177.5989185673193
 31
0.0
 11
-173.9887331485282
 21
-175.7380311751179
 31
0.0
 11
-176.0345992307543
 21
-174.0935255138094
 31
0.0
 11
-178.2021301211355
 21
-172.6944344983274
 31
0.0
 11
-180.4530593663563
 21
-171.5654579057826
 31
0.0
  0
SPLINE
  5
118
330
47
100
AcDbEntity
  8
0
  6
Continuous
 62
     7
100
AcDbSpline
210
0.0
220
0.0
230
1.0
 70
     8
 71
     3
 72
    11
 73
     7
 74
     5
 42
0.000000001
 43
0.0000000001
 44
0.00000001
 40
0.0
 40
0.0
 40
0.0
 40
0.0
 40
3.172891730022843
 40
6.360794854088886
 40
9.52840515095545
 40
12.64182015887949
 40
12.64182015887949
 40
12.64182015887949
 40
12.64182015887949
 10
-168.7277913017889
 20
-181.6619827954634
 30
0.0
 10
-169.3055835510956
 20
-180.7743959033497
 30
0.0
 10
-170.4639016778269
 20
-178.9950228301336
 30
0.0
 10
-172.5917594994427
 20
-176.6239503473733
 30
0.0
 10
-174.9354360314852
 20
-174.4943625683494
 30
0.0
 10
-176.6910282803579
 20
-173.3480458695963
 30
0.0
 10
-177.5612504203902
 20
-172.7798329740411
 30
0.0
 11
-168.7277913017889
 21
-181.6619827954634
 31
0.0
 11
-170.5263984447382
 21
-179.048124674016
 31
0.0
 11
-172.6349800566331
 21
-176.6571813617977
 31
0.0
 11
-174.9999610166722
 21
-174.5499034827556
 31
0.0
 11
-177.5612504203902
 21
-172.7798329740411
 31
0.0
  0
ENDBLK
  5
49
330
47
100
AcDbEntity
  8
0
100
AcDbBlockEnd
  0
BLOCK
  5
4C
330
4A
100
AcDbEntity
  8
0
100
AcDbBlockBegin
  2
Allg1
 70
     0
 10
-175.0000000001032
 20
-192.000000646652
 30
0.0
  3
Allg1
  1

  0
INSERT
  5
4B
330
4A
100
AcDbEntity
  8
0
100
AcDbBlockReference
  2
UK_10_3-HESI_1000V-select__1
 10
-213.6228437083618
 20
-229.4223564503045
 30
0.0
  0
MTEXT
  5
11A
330
4A
100
AcDbEntity
  8
1
 62
     6
100
AcDbMText
 10
-175.0000000001018
 20
-239.4453026250179
 30
0.0
 40
5.0
 41
0.0
 71
     2
 72
     1
  1
 
  7
CONVERTER_11
 73
     1
 44
1.32052821128451
  0
ENDBLK
  5
4D
330
4A
100
AcDbEntity
  8
0
100
AcDbBlockEnd
  0
BLOCK
  5
4F
330
4E
100
AcDbEntity
  8
0
100
AcDbBlockBegin
  2
UK_10_3-HESI_1000V-select__2
 70
     0
 10
-344.2499996356328
 20
-204.9052820826872
 30
0.0
  3
UK_10_3-HESI_1000V-select__2
  1

  0
LINE
  5
11B
330
4E
100
AcDbEntity
  8
0
  6
Continuous
 62
     7
100
AcDbLine
 10
-338.8499996356328
 20
-191.1505380960301
 30
0.0
 11
-338.8499996356328
 21
-200.8600260693442
 31
0.0
  0
LINE
  5
11C
330
4E
100
AcDbEntity
  8
0
  6
Continuous
 62
     7
100
AcDbLine
 10
-338.8499996356328
 20
-189.1353574600474
 30
0.0
 11
-338.8499996356328
 21
-191.1505380960301
 31
0.0
  0
LINE
  5
11D
330
4E
100
AcDbEntity
  8
0
  6
Continuous
 62
     7
100
AcDbLine
 10
-330.9499996356328
 20
-196.9245208982297
 30
0.0
 11
-332.922200533723
 21
-198.8967217963198
 31
0.0
  0
LINE
  5
11E
330
4E
100
AcDbEntity
  8
0
  6
Continuous
 62
     7
100
AcDbLine
 10
-333.8414393492655
 20
-197.9774829807773
 30
0.0
 11
-331.8692384511753
 21
-196.0052820826872
 31
0.0
  0
LINE
  5
11F
330
4E
100
AcDbEntity
  8
0
  6
Continuous
 62
     7
100
AcDbLine
 10
-338.8499996356328
 20
-200.8600260693442
 30
0.0
 11
-338.8499996356328
 21
-202.8752067053269
 31
0.0
  0
LINE
  5
120
330
4E
100
AcDbEntity
  8
0
  6
Continuous
 62
     7
100
AcDbLine
 10
-342.2499996356328
 20
-195.1052820826872
 30
0.0
 11
-342.2499996356328
 21
-196.9052820826872
 31
0.0
  0
LINE
  5
121
330
4E
100
AcDbEntity
  8
0
  6
Continuous
 62
     7
100
AcDbLine
 10
-344.2499996356328
 20
-195.1052820826872
 30
0.0
 11
-344.2499996356328
 21
-196.9052820826872
 31
0.0
  0
LINE
  5
122
330
4E
100
AcDbEntity
  8
0
  6
Continuous
 62
     7
100
AcDbLine
 10
-331.8692384511753
 20
-196.0052820826872
 30
0.0
 11
-333.8414393492655
 21
-194.033081184597
 31
0.0
  0
LINE
  5
123
330
4E
100
AcDbEntity
  8
0
  6
Continuous
 62
     7
100
AcDbLine
 10
-330.9499996356328
 20
-195.0860432671447
 30
0.0
 11
-328.9777987375426
 21
-193.1138423690545
 31
0.0
  0
LINE
  5
124
330
4E
100
AcDbEntity
  8
0
  6
Continuous
 62
     7
100
AcDbLine
 10
-268.7414393492654
 20
-197.9774829807773
 30
0.0
 11
-266.7692384511754
 21
-196.0052820826872
 31
0.0
  0
LINE
  5
125
330
4E
100
AcDbEntity
  8
0
  6
Continuous
 62
     7
100
AcDbLine
 10
-264.9307608200903
 20
-196.0052820826872
 30
0.0
 11
-262.9585599220002
 21
-197.9774829807773
 31
0.0
  0
LINE
  5
126
330
4E
100
AcDbEntity
  8
0
  6
Continuous
 62
     7
100
AcDbLine
 10
-338.8499996356328
 20
-202.8752067053269
 30
0.0
 11
-338.8499996356328
 21
-204.9052820826872
 31
0.0
  0
LINE
  5
127
330
4E
100
AcDbEntity
  8
0
  6
Continuous
 62
     7
100
AcDbLine
 10
-320.8499996356328
 20
-204.9052820826872
 30
0.0
 11
-317.8793303547793
 21
-204.9052820826872
 31
0.0
  0
LINE
  5
128
330
4E
100
AcDbEntity
  8
0
  6
Continuous
 62
     7
100
AcDbLine
 10
-319.3499996356328
 20
-203.5052820826872
 30
0.0
 11
-317.8793303547793
 21
-203.5052820826872
 31
0.0
  0
LINE
  5
129
330
4E
100
AcDbEntity
  8
0
  6
Continuous
 62
     7
100
AcDbLine
 10
-311.2619864389624
 20
-203.0052820826872
 30
0.0
 11
-318.5426979133573
 21
-203.0052820826872
 31
0.0
  0
LINE
  5
12A
330
4E
100
AcDbEntity
  8
0
  6
Continuous
 62
     7
100
AcDbLine
 10
-317.8793303547793
 20
-203.5052820826872
 30
0.0
 11
-317.8793303547793
 21
-204.9052820826872
 31
0.0
  0
LINE
  5
12B
330
4E
100
AcDbEntity
  8
0
  6
Continuous
 62
     7
100
AcDbLine
 10
-298.6638737340675
 20
-204.5052820826872
 30
0.0
 11
-298.7713793838292
 21
-204.5052820826872
 31
0.0
  0
LINE
  5
12C
330
4E
100
AcDbEntity
  8
0
  6
Continuous
 62
     7
100
AcDbLine
 10
-298.2725922095283
 20
-204.5052820826872
 30
0.0
 11
-298.6638737340675
 21
-204.5052820826872
 31
0.0
  0
LINE
  5
12D
330
4E
100
AcDbEntity
  8
0
  6
Continuous
 62
     7
100
AcDbLine
 10
-298.7713793838292
 20
-204.5052820826872
 30
0.0
 11
-299.1499996356328
 21
-204.5052820826872
 31
0.0
  0
LINE
  5
12E
330
4E
100
AcDbEntity
  8
0
  6
Continuous
 62
     7
100
AcDbLine
 10
-299.1499996356328
 20
-203.0052820826872
 30
0.0
 11
-299.1499996356328
 21
-203.5052820826872
 31
0.0
  0
LINE
  5
12F
330
4E
100
AcDbEntity
  8
0
  6
Continuous
 62
     7
100
AcDbLine
 10
-299.1499996356328
 20
-203.5052820826872
 30
0.0
 11
-299.1499996356328
 21
-204.5052820826872
 31
0.0
  0
LINE
  5
130
330
4E
100
AcDbEntity
  8
0
  6
Continuous
 62
     7
100
AcDbLine
 10
-288.9499996356328
 20
-204.5052820826872
 30
0.0
 11
-291.9943525202726
 21
-204.5052820826872
 31
0.0
  0
LINE
  5
131
330
4E
100
AcDbEntity
  8
0
  6
Continuous
 62
     7
100
AcDbLine
 10
-288.9499996356328
 20
-204.9052820826872
 30
0.0
 11
-302.258232874754
 21
-204.9052820826872
 31
0.0
  0
LINE
  5
132
330
4E
100
AcDbEntity
  8
0
  6
Continuous
 62
     7
100
AcDbLine
 10
-307.1499996356328
 20
-203.0052820826872
 30
0.0
 11
-299.1499996356328
 21
-203.0052820826872
 31
0.0
  0
LINE
  5
133
330
4E
100
AcDbEntity
  8
0
  6
Continuous
 62
     7
100
AcDbLine
 10
-317.8793303547793
 20
-204.9052820826872
 30
0.0
 11
-302.258232874754
 21
-204.9052820826872
 31
0.0
  0
LINE
  5
134
330
4E
100
AcDbEntity
  8
0
  6
Continuous
 62
     7
100
AcDbLine
 10
-317.8793303547793
 20
-203.5052820826872
 30
0.0
 11
-302.258232874754
 21
-203.5052820826872
 31
0.0
  0
LINE
  5
135
330
4E
100
AcDbEntity
  8
0
  6
Continuous
 62
     7
100
AcDbLine
 10
-338.8499996356328
 20
-204.9052820826872
 30
0.0
 11
-320.8499996356328
 21
-204.9052820826872
 31
0.0
  0
LINE
  5
136
330
4E
100
AcDbEntity
  8
0
  6
Continuous
 62
     7
100
AcDbLine
 10
-279.8772723629056
 20
-204.5052820826872
 30
0.0
 11
-288.9499996356328
 21
-204.5052820826872
 31
0.0
  0
LINE
  5
137
330
4E
100
AcDbEntity
  8
0
  6
Continuous
 62
     7
100
AcDbLine
 10
-279.8772723629056
 20
-204.5052820826872
 30
0.0
 11
-279.8772723629056
 21
-204.9052820826872
 31
0.0
  0
LINE
  5
138
330
4E
100
AcDbEntity
  8
0
  6
Continuous
 62
     7
100
AcDbLine
 10
-275.9499996356328
 20
-204.9052820826872
 30
0.0
 11
-279.8772723629056
 21
-204.9052820826872
 31
0.0
  0
LINE
  5
139
330
4E
100
AcDbEntity
  8
0
  6
Continuous
 62
     7
100
AcDbLine
 10
-257.9499996356328
 20
-204.9052820826872
 30
0.0
 11
-275.9499996356328
 21
-204.9052820826872
 31
0.0
  0
LINE
  5
13A
330
4E
100
AcDbEntity
  8
0
  6
Continuous
 62
     7
100
AcDbLine
 10
-257.9499996356328
 20
-204.9052820826872
 30
0.0
 11
-257.9499996356328
 21
-187.1052820826872
 31
0.0
  0
LINE
  5
13B
330
4E
100
AcDbEntity
  8
0
  6
Continuous
 62
     7
100
AcDbLine
 10
-288.9499996356328
 20
-204.5052820826872
 30
0.0
 11
-288.9499996356328
 21
-204.9052820826872
 31
0.0
  0
LINE
  5
13C
330
4E
100
AcDbEntity
  8
0
  6
Continuous
 62
     7
100
AcDbLine
 10
-279.8772723629056
 20
-204.9052820826872
 30
0.0
 11
-288.9499996356328
 21
-204.9052820826872
 31
0.0
  0
LINE
  5
13D
330
4E
100
AcDbEntity
  8
0
  6
Continuous
 62
     7
100
AcDbLine
 10
-263.8777987375426
 20
-198.8967217963198
 30
0.0
 11
-265.8499996356328
 21
-196.9245208982297
 31
0.0
  0
LINE
  5
13E
330
4E
100
AcDbEntity
  8
0
  6
Continuous
 62
     7
100
AcDbLine
 10
-265.8499996356328
 20
-196.9245208982297
 30
0.0
 11
-267.8222005337229
 21
-198.8967217963198
 31
0.0
  0
LINE
  5
13F
330
4E
100
AcDbEntity
  8
0
  6
Continuous
 62
     7
100
AcDbLine
 10
-292.2848317035184
 20
-187.6052820826872
 30
0.0
 11
-292.3452657440856
 21
-187.6052820826872
 31
0.0
  0
LINE
  5
140
330
4E
100
AcDbEntity
  8
0
  6
Continuous
 62
     7
100
AcDbLine
 10
-292.2554777746749
 20
-187.6052820826872
 30
0.0
 11
-291.9943525202726
 21
-187.6052820826872
 31
0.0
  0
LINE
  5
141
330
4E
100
AcDbEntity
  8
0
  6
Continuous
 62
     7
100
AcDbLine
 10
-297.542746433701
 20
-187.6052820826872
 30
0.0
 11
-292.3452657440856
 21
-187.6052820826872
 31
0.0
  0
LINE
  5
142
330
4E
100
AcDbEntity
  8
0
  6
Continuous
 62
     7
100
AcDbLine
 10
-298.2725922095283
 20
-187.6052820826872
 30
0.0
 11
-298.1734858812891
 21
-187.6052820826872
 31
0.0
  0
LINE
  5
143
330
4E
100
AcDbEntity
  8
0
  6
Continuous
 62
     7
100
AcDbLine
 10
-292.2779397309209
 20
-187.6052820826872
 30
0.0
 11
-292.2554777746749
 21
-187.6052820826872
 31
0.0
  0
LINE
  5
144
330
4E
100
AcDbEntity
  8
0
  6
Continuous
 62
     7
100
AcDbLine
 10
-292.2779397309209
 20
-204.5052820826872
 30
0.0
 11
-292.2554777746749
 21
-204.5052820826872
 31
0.0
  0
LINE
  5
145
330
4E
100
AcDbEntity
  8
0
  6
Continuous
 62
     2
100
AcDbLine
 10
-292.2779397309209
 20
-187.6052820826872
 30
0.0
 11
-292.2779397309209
 21
-204.5052820826872
 31
0.0
  0
LINE
  5
146
330
4E
100
AcDbEntity
  8
0
  6
Continuous
 62
     7
100
AcDbLine
 10
-292.2848317035184
 20
-187.6052820826872
 30
0.0
 11
-292.2848317035184
 21
-204.5052820826872
 31
0.0
  0
LINE
  5
147
330
4E
100
AcDbEntity
  8
0
  6
Continuous
 62
     7
100
AcDbLine
 10
-292.2848317035184
 20
-204.5052820826872
 30
0.0
 11
-292.3452657440856
 21
-204.5052820826872
 31
0.0
  0
LINE
  5
148
330
4E
100
AcDbEntity
  8
0
  6
Continuous
 62
     2
100
AcDbLine
 10
-292.3452657440856
 20
-187.6052820826872
 30
0.0
 11
-292.3452657440856
 21
-204.5052820826872
 31
0.0
  0
LINE
  5
149
330
4E
100
AcDbEntity
  8
0
  6
Continuous
 62
     2
100
AcDbLine
 10
-292.2554777746749
 20
-187.6052820826872
 30
0.0
 11
-292.2554777746749
 21
-204.5052820826872
 31
0.0
  0
LINE
  5
14A
330
4E
100
AcDbEntity
  8
0
  6
Continuous
 62
     2
100
AcDbLine
 10
-298.1734858812891
 20
-187.6052820826872
 30
0.0
 11
-298.1734858812891
 21
-204.5052820826872
 31
0.0
  0
LINE
  5
14B
330
4E
100
AcDbEntity
  8
0
  6
Continuous
 62
     7
100
AcDbLine
 10
-298.1339637870071
 20
-187.6052820826872
 30
0.0
 11
-298.1339637870071
 21
-204.5052820826872
 31
0.0
  0
LINE
  5
14C
330
4E
100
AcDbEntity
  8
0
  6
Continuous
 62
     7
100
AcDbLine
 10
-298.1734858812891
 20
-187.6052820826872
 30
0.0
 11
-298.1339637870071
 21
-187.6052820826872
 31
0.0
  0
LINE
  5
14D
330
4E
100
AcDbEntity
  8
0
  6
Continuous
 62
     7
100
AcDbLine
 10
-298.1734858812891
 20
-204.5052820826872
 30
0.0
 11
-298.1339637870071
 21
-204.5052820826872
 31
0.0
  0
LINE
  5
14E
330
4E
100
AcDbEntity
  8
0
  6
Continuous
 62
     7
100
AcDbLine
 10
-298.2725922095283
 20
-204.5052820826872
 30
0.0
 11
-298.1734858812891
 21
-204.5052820826872
 31
0.0
  0
LINE
  5
14F
330
4E
100
AcDbEntity
  8
0
  6
Continuous
 62
     7
100
AcDbLine
 10
-298.1339637870071
 20
-204.5052820826872
 30
0.0
 11
-297.5427464337012
 21
-204.5052820826872
 31
0.0
  0
LINE
  5
150
330
4E
100
AcDbEntity
  8
0
  6
Continuous
 62
     7
100
AcDbLine
 10
-298.1339637870071
 20
-187.6052820826872
 30
0.0
 11
-297.542746433701
 21
-187.6052820826872
 31
0.0
  0
LINE
  5
151
330
4E
100
AcDbEntity
  8
0
  6
Continuous
 62
     2
100
AcDbLine
 10
-298.2725922095283
 20
-187.6052820826872
 30
0.0
 11
-298.2725922095283
 21
-204.5052820826872
 31
0.0
  0
LINE
  5
152
330
4E
100
AcDbEntity
  8
0
  6
Continuous
 62
     2
100
AcDbLine
 10
-297.542746433701
 20
-187.6052820826872
 30
0.0
 11
-297.5427464337012
 21
-204.5052820826872
 31
0.0
  0
LINE
  5
153
330
4E
100
AcDbEntity
  8
0
  6
Continuous
 62
     7
100
AcDbLine
 10
-292.2779397309209
 20
-204.5052820826872
 30
0.0
 11
-292.2848317035184
 21
-204.5052820826872
 31
0.0
  0
LINE
  5
154
330
4E
100
AcDbEntity
  8
0
  6
Continuous
 62
     7
100
AcDbLine
 10
-292.2554777746749
 20
-204.5052820826872
 30
0.0
 11
-291.9943525202726
 21
-204.5052820826872
 31
0.0
  0
LINE
  5
155
330
4E
100
AcDbEntity
  8
0
  6
Continuous
 62
     7
100
AcDbLine
 10
-297.5427464337012
 20
-204.5052820826872
 30
0.0
 11
-292.3452657440856
 21
-204.5052820826872
 31
0.0
  0
LINE
  5
156
330
4E
100
AcDbEntity
  8
0
  6
Continuous
 62
     2
100
AcDbLine
 10
-298.6638737340675
 20
-187.6052820826872
 30
0.0
 11
-298.6638737340675
 21
-204.5052820826872
 31
0.0
  0
LINE
  5
157
330
4E
100
AcDbEntity
  8
0
  6
Continuous
 62
     7
100
AcDbLine
 10
-291.9943525202726
 20
-187.6052820826872
 30
0.0
 11
-291.9943525202726
 21
-204.5052820826872
 31
0.0
  0
LINE
  5
158
330
4E
100
AcDbEntity
  8
0
  6
Continuous
 62
     7
100
AcDbLine
 10
-299.1499996356328
 20
-189.1052820826872
 30
0.0
 11
-299.1499996356328
 21
-203.0052820826872
 31
0.0
  0
LINE
  5
159
330
4E
100
AcDbEntity
  8
0
  6
Continuous
 62
     7
100
AcDbLine
 10
-309.4499996356328
 20
-189.1052820826872
 30
0.0
 11
-308.3499996356328
 21
-189.1052820826872
 31
0.0
  0
LINE
  5
15A
330
4E
100
AcDbEntity
  8
0
  6
Continuous
 62
     7
100
AcDbLine
 10
-308.3499996356328
 20
-189.1052820826872
 30
0.0
 11
-308.2499996356328
 21
-189.1052820826872
 31
0.0
  0
LINE
  5
15B
330
4E
100
AcDbEntity
  8
0
  6
Continuous
 62
     7
100
AcDbLine
 10
-310.5383429412061
 20
-189.1052820826872
 30
0.0
 11
-311.2619864389624
 21
-189.1052820826872
 31
0.0
  0
LINE
  5
15C
330
4E
100
AcDbEntity
  8
0
  6
Continuous
 62
     7
100
AcDbLine
 10
-309.4499996356328
 20
-189.1052820826872
 30
0.0
 11
-310.5383429412061
 21
-189.1052820826872
 31
0.0
  0
LINE
  5
15D
330
4E
100
AcDbEntity
  8
0
  6
Continuous
 62
     2
100
AcDbLine
 10
-308.3499996356328
 20
-189.1052820826872
 30
0.0
 11
-308.3499996356328
 21
-203.0052820826872
 31
0.0
  0
LINE
  5
15E
330
4E
100
AcDbEntity
  8
0
  6
Continuous
 62
     7
100
AcDbLine
 10
-308.2499996356328
 20
-189.1052820826872
 30
0.0
 11
-307.1499996356328
 21
-189.1052820826872
 31
0.0
  0
LINE
  5
15F
330
4E
100
AcDbEntity
  8
0
  6
Continuous
 62
     2
100
AcDbLine
 10
-308.2499996356328
 20
-189.1052820826872
 30
0.0
 11
-308.2499996356328
 21
-203.0052820826872
 31
0.0
  0
LINE
  5
160
330
4E
100
AcDbEntity
  8
0
  6
Continuous
 62
     7
100
AcDbLine
 10
-309.4499996356328
 20
-189.1052820826872
 30
0.0
 11
-309.4499996356328
 21
-203.0052820826872
 31
0.0
  0
LINE
  5
161
330
4E
100
AcDbEntity
  8
0
  6
Continuous
 62
     2
100
AcDbLine
 10
-310.5383429412061
 20
-189.1052820826872
 30
0.0
 11
-310.5383429412061
 21
-203.0052820826872
 31
0.0
  0
LINE
  5
162
330
4E
100
AcDbEntity
  8
0
  6
Continuous
 62
     7
100
AcDbLine
 10
-311.2619864389624
 20
-189.1052820826872
 30
0.0
 11
-318.5426979133573
 21
-189.1052820826872
 31
0.0
  0
LINE
  5
163
330
4E
100
AcDbEntity
  8
0
  6
Continuous
 62
     2
100
AcDbLine
 10
-311.2619864389624
 20
-189.1052820826872
 30
0.0
 11
-311.2619864389624
 21
-203.0052820826872
 31
0.0
  0
LINE
  5
164
330
4E
100
AcDbEntity
  8
0
  6
Continuous
 62
     7
100
AcDbLine
 10
-302.258232874754
 20
-203.5052820826872
 30
0.0
 11
-302.258232874754
 21
-204.9052820826872
 31
0.0
  0
LINE
  5
165
330
4E
100
AcDbEntity
  8
0
  6
Continuous
 62
     7
100
AcDbLine
 10
-307.1499996356328
 20
-203.0052820826872
 30
0.0
 11
-307.1499996356328
 21
-189.1052820826872
 31
0.0
  0
LINE
  5
166
330
4E
100
AcDbEntity
  8
0
  6
Continuous
 62
     2
100
AcDbLine
 10
-298.7713793838292
 20
-187.6052820826872
 30
0.0
 11
-298.7713793838292
 21
-204.5052820826872
 31
0.0
  0
LINE
  5
167
330
4E
100
AcDbEntity
  8
0
  6
Continuous
 62
     7
100
AcDbLine
 10
-277.2465460131339
 20
-204.5052820826872
 30
0.0
 11
-277.7628832808152
 21
-204.5052820826872
 31
0.0
  0
LINE
  5
168
330
4E
100
AcDbEntity
  8
0
  6
Continuous
 62
     7
100
AcDbLine
 10
-277.7628832808152
 20
-204.5052820826872
 30
0.0
 11
-279.8772723629056
 21
-204.5052820826872
 31
0.0
  0
LINE
  5
169
330
4E
100
AcDbEntity
  8
0
  6
Continuous
 62
     7
100
AcDbLine
 10
-277.2465460131339
 20
-187.6052820826872
 30
0.0
 11
-277.2465460131339
 21
-204.5052820826872
 31
0.0
  0
LINE
  5
16A
330
4E
100
AcDbEntity
  8
0
  6
Continuous
 62
     2
100
AcDbLine
 10
-277.7628832808152
 20
-204.5052820826872
 30
0.0
 11
-277.7628832808152
 21
-187.6052820826872
 31
0.0
  0
LINE
  5
16B
330
4E
100
AcDbEntity
  8
0
  6
Continuous
 62
     7
100
AcDbLine
 10
-275.9499996356328
 20
-204.9052820826872
 30
0.0
 11
-275.9499996356328
 21
-187.1052820826872
 31
0.0
  0
LINE
  5
16C
330
4E
100
AcDbEntity
  8
0
  6
Continuous
 62
     7
100
AcDbLine
 10
-277.2465460131339
 20
-187.6052820826872
 30
0.0
 11
-277.7628832808152
 21
-187.6052820826872
 31
0.0
  0
LINE
  5
16D
330
4E
100
AcDbEntity
  8
0
  6
Continuous
 62
     7
100
AcDbLine
 10
-277.7628832808152
 20
-187.6052820826872
 30
0.0
 11
-279.8772723629056
 21
-187.6052820826872
 31
0.0
  0
LINE
  5
16E
330
4E
100
AcDbEntity
  8
0
  6
Continuous
 62
     7
100
AcDbLine
 10
-279.8772723629056
 20
-187.1052820826872
 30
0.0
 11
-279.8772723629056
 21
-187.6052820826872
 31
0.0
  0
LINE
  5
16F
330
4E
100
AcDbEntity
  8
0
  6
Continuous
 62
     7
100
AcDbLine
 10
-288.9499996356328
 20
-187.1052820826872
 30
0.0
 11
-279.8772723629056
 21
-187.1052820826872
 31
0.0
  0
LINE
  5
170
330
4E
100
AcDbEntity
  8
0
  6
Continuous
 62
     7
100
AcDbLine
 10
-275.9499996356328
 20
-187.1052820826872
 30
0.0
 11
-279.8772723629056
 21
-187.1052820826872
 31
0.0
  0
LINE
  5
171
330
4E
100
AcDbEntity
  8
0
  6
Continuous
 62
     7
100
AcDbLine
 10
-262.9585599220002
 20
-194.033081184597
 30
0.0
 11
-264.9307608200903
 21
-196.0052820826872
 31
0.0
  0
LINE
  5
172
330
4E
100
AcDbEntity
  8
0
  6
Continuous
 62
     7
100
AcDbLine
 10
-265.8499996356328
 20
-195.0860432671447
 30
0.0
 11
-263.8777987375426
 21
-193.1138423690545
 31
0.0
  0
LINE
  5
173
330
4E
100
AcDbEntity
  8
0
  6
Continuous
 62
     7
100
AcDbLine
 10
-266.7692384511754
 20
-196.0052820826872
 30
0.0
 11
-268.7414393492654
 21
-194.033081184597
 31
0.0
  0
LINE
  5
174
330
4E
100
AcDbEntity
  8
0
  6
Continuous
 62
     7
100
AcDbLine
 10
-257.9499996356328
 20
-187.1052820826872
 30
0.0
 11
-275.9499996356328
 21
-187.1052820826872
 31
0.0
  0
LINE
  5
175
330
4E
100
AcDbEntity
  8
0
  6
Continuous
 62
     7
100
AcDbLine
 10
-267.8222005337229
 20
-193.1138423690545
 30
0.0
 11
-265.8499996356328
 21
-195.0860432671447
 31
0.0
  0
LINE
  5
176
330
4E
100
AcDbEntity
  8
0
  6
Continuous
 62
     7
100
AcDbLine
 10
-308.2499996356328
 20
-203.0052820826872
 30
0.0
 11
-308.3499996356328
 21
-203.0052820826872
 31
0.0
  0
LINE
  5
177
330
4E
100
AcDbEntity
  8
0
  6
Continuous
 62
     7
100
AcDbLine
 10
-309.4499996356328
 20
-203.0052820826872
 30
0.0
 11
-310.5383429412061
 21
-203.0052820826872
 31
0.0
  0
LINE
  5
178
330
4E
100
AcDbEntity
  8
0
  6
Continuous
 62
     7
100
AcDbLine
 10
-309.4499996356328
 20
-203.0052820826872
 30
0.0
 11
-308.3499996356328
 21
-203.0052820826872
 31
0.0
  0
LINE
  5
179
330
4E
100
AcDbEntity
  8
0
  6
Continuous
 62
     7
100
AcDbLine
 10
-308.2499996356328
 20
-203.0052820826872
 30
0.0
 11
-307.1499996356328
 21
-203.0052820826872
 31
0.0
  0
LINE
  5
17A
330
4E
100
AcDbEntity
  8
0
  6
Continuous
 62
     7
100
AcDbLine
 10
-310.5383429412061
 20
-203.0052820826872
 30
0.0
 11
-311.2619864389624
 21
-203.0052820826872
 31
0.0
  0
LINE
  5
17B
330
4E
100
AcDbEntity
  8
0
  6
Continuous
 62
     7
100
AcDbLine
 10
-299.1499996356328
 20
-203.5052820826872
 30
0.0
 11
-302.258232874754
 21
-203.5052820826872
 31
0.0
  0
LINE
  5
17C
330
4E
100
AcDbEntity
  8
0
  6
Continuous
 62
     7
100
AcDbLine
 10
-338.8499996356328
 20
-187.1052820826872
 30
0.0
 11
-338.8499996356328
 21
-189.1353574600474
 31
0.0
  0
LINE
  5
17D
330
4E
100
AcDbEntity
  8
0
  6
Continuous
 62
     7
100
AcDbLine
 10
-317.8793303547793
 20
-187.1052820826872
 30
0.0
 11
-302.258232874754
 21
-187.1052820826872
 31
0.0
  0
LINE
  5
17E
330
4E
100
AcDbEntity
  8
0
  6
Continuous
 62
     7
100
AcDbLine
 10
-317.8793303547793
 20
-188.5052820826872
 30
0.0
 11
-317.8793303547793
 21
-187.1052820826872
 31
0.0
  0
LINE
  5
17F
330
4E
100
AcDbEntity
  8
0
  6
Continuous
 62
     7
100
AcDbLine
 10
-288.9499996356328
 20
-187.6052820826872
 30
0.0
 11
-291.9943525202726
 21
-187.6052820826872
 31
0.0
  0
LINE
  5
180
330
4E
100
AcDbEntity
  8
0
  6
Continuous
 62
     7
100
AcDbLine
 10
-292.2779397309209
 20
-187.6052820826872
 30
0.0
 11
-292.2848317035184
 21
-187.6052820826872
 31
0.0
  0
LINE
  5
181
330
4E
100
AcDbEntity
  8
0
  6
Continuous
 62
     7
100
AcDbLine
 10
-299.1499996356328
 20
-188.5052820826872
 30
0.0
 11
-299.1499996356328
 21
-189.1052820826872
 31
0.0
  0
LINE
  5
182
330
4E
100
AcDbEntity
  8
0
  6
Continuous
 62
     7
100
AcDbLine
 10
-299.1499996356328
 20
-187.6052820826872
 30
0.0
 11
-299.1499996356328
 21
-188.5052820826872
 31
0.0
  0
LINE
  5
183
330
4E
100
AcDbEntity
  8
0
  6
Continuous
 62
     7
100
AcDbLine
 10
-298.7713793838292
 20
-187.6052820826872
 30
0.0
 11
-299.1499996356328
 21
-187.6052820826872
 31
0.0
  0
LINE
  5
184
330
4E
100
AcDbEntity
  8
0
  6
Continuous
 62
     7
100
AcDbLine
 10
-298.6638737340675
 20
-187.6052820826872
 30
0.0
 11
-298.7713793838292
 21
-187.6052820826872
 31
0.0
  0
LINE
  5
185
330
4E
100
AcDbEntity
  8
0
  6
Continuous
 62
     7
100
AcDbLine
 10
-298.2725922095283
 20
-187.6052820826872
 30
0.0
 11
-298.6638737340675
 21
-187.6052820826872
 31
0.0
  0
LINE
  5
186
330
4E
100
AcDbEntity
  8
0
  6
Continuous
 62
     7
100
AcDbLine
 10
-299.1499996356328
 20
-189.1052820826872
 30
0.0
 11
-307.1499996356328
 21
-189.1052820826872
 31
0.0
  0
LINE
  5
187
330
4E
100
AcDbEntity
  8
0
  6
Continuous
 62
     7
100
AcDbLine
 10
-299.1499996356328
 20
-188.5052820826872
 30
0.0
 11
-302.258232874754
 21
-188.5052820826872
 31
0.0
  0
LINE
  5
188
330
4E
100
AcDbEntity
  8
0
  6
Continuous
 62
     7
100
AcDbLine
 10
-302.258232874754
 20
-187.1052820826872
 30
0.0
 11
-302.258232874754
 21
-188.5052820826872
 31
0.0
  0
LINE
  5
189
330
4E
100
AcDbEntity
  8
0
  6
Continuous
 62
     7
100
AcDbLine
 10
-288.9499996356328
 20
-187.1052820826872
 30
0.0
 11
-288.9499996356328
 21
-187.6052820826872
 31
0.0
  0
LINE
  5
18A
330
4E
100
AcDbEntity
  8
0
  6
Continuous
 62
     7
100
AcDbLine
 10
-288.9499996356328
 20
-187.1052820826872
 30
0.0
 11
-302.258232874754
 21
-187.1052820826872
 31
0.0
  0
LINE
  5
18B
330
4E
100
AcDbEntity
  8
0
  6
Continuous
 62
     7
100
AcDbLine
 10
-279.8772723629056
 20
-187.6052820826872
 30
0.0
 11
-288.9499996356328
 21
-187.6052820826872
 31
0.0
  0
LINE
  5
18C
330
4E
100
AcDbEntity
  8
0
  6
Continuous
 62
     7
100
AcDbLine
 10
-317.8793303547793
 20
-188.5052820826872
 30
0.0
 11
-302.258232874754
 21
-188.5052820826872
 31
0.0
  0
LINE
  5
18D
330
4E
100
AcDbEntity
  8
0
  6
Continuous
 62
     7
100
AcDbLine
 10
-319.3499996356328
 20
-188.5052820826872
 30
0.0
 11
-317.8793303547793
 21
-188.5052820826872
 31
0.0
  0
LINE
  5
18E
330
4E
100
AcDbEntity
  8
0
  6
Continuous
 62
     7
100
AcDbLine
 10
-320.8499996356328
 20
-187.1052820826872
 30
0.0
 11
-317.8793303547793
 21
-187.1052820826872
 31
0.0
  0
LINE
  5
18F
330
4E
100
AcDbEntity
  8
0
  6
Continuous
 62
     7
100
AcDbLine
 10
-338.8499996356328
 20
-187.1052820826872
 30
0.0
 11
-320.8499996356328
 21
-187.1052820826872
 31
0.0
  0
LINE
  5
190
330
4E
100
AcDbEntity
  8
0
  6
Continuous
 62
     7
100
AcDbLine
 10
-320.8499996356328
 20
-204.9052820826872
 30
0.0
 11
-320.8499996356328
 21
-187.1052820826872
 31
0.0
  0
LINE
  5
191
330
4E
100
AcDbEntity
  8
0
  6
Continuous
 62
     7
100
AcDbLine
 10
-319.3499996356328
 20
-203.5052820826872
 30
0.0
 11
-319.3499996356328
 21
-188.5052820826872
 31
0.0
  0
LINE
  5
192
330
4E
100
AcDbEntity
  8
0
  6
Continuous
 62
     7
100
AcDbLine
 10
-318.5426979133573
 20
-189.1052820826872
 30
0.0
 11
-318.5426979133573
 21
-203.0052820826872
 31
0.0
  0
LINE
  5
193
330
4E
100
AcDbEntity
  8
0
  6
Continuous
 62
     7
100
AcDbLine
 10
-328.9777987375426
 20
-198.8967217963198
 30
0.0
 11
-330.9499996356328
 21
-196.9245208982297
 31
0.0
  0
LINE
  5
194
330
4E
100
AcDbEntity
  8
0
  6
Continuous
 62
     7
100
AcDbLine
 10
-328.0585599220001
 20
-194.033081184597
 30
0.0
 11
-330.0307608200903
 21
-196.0052820826872
 31
0.0
  0
LINE
  5
195
330
4E
100
AcDbEntity
  8
0
  6
Continuous
 62
     7
100
AcDbLine
 10
-330.0307608200903
 20
-196.0052820826872
 30
0.0
 11
-328.0585599220001
 21
-197.9774829807773
 31
0.0
  0
LINE
  5
196
330
4E
100
AcDbEntity
  8
0
  6
Continuous
 62
     7
100
AcDbLine
 10
-332.922200533723
 20
-193.1138423690545
 30
0.0
 11
-330.9499996356328
 21
-195.0860432671447
 31
0.0
  0
LINE
  5
197
330
4E
100
AcDbEntity
  8
1
  6
DOT_CENTER
 62
     2
100
AcDbLine
 10
-261.9999996356327
 20
-196.0052820826872
 30
0.0
 11
-269.6999996356329
 21
-196.0052820826872
 31
0.0
  0
LINE
  5
198
330
4E
100
AcDbEntity
  8
1
  6
DOT_CENTER
 62
     2
100
AcDbLine
 10
-265.8499996356328
 20
-192.1552820826871
 30
0.0
 11
-265.8499996356328
 21
-199.8552820826872
 31
0.0
  0
LINE
  5
199
330
4E
100
AcDbEntity
  8
1
  6
DOT_CENTER
 62
     2
100
AcDbLine
 10
-300.0499996356328
 20
-198.3052820826871
 30
0.0
 11
-303.3499996356327
 21
-198.3052820826871
 31
0.0
  0
LINE
  5
19A
330
4E
100
AcDbEntity
  8
1
  6
DOT_CENTER
 62
     2
100
AcDbLine
 10
-301.6999996356328
 20
-196.6552820826871
 30
0.0
 11
-301.6999996356328
 21
-199.9552820826872
 31
0.0
  0
LINE
  5
19B
330
4E
100
AcDbEntity
  8
1
  6
DOT_CENTER
 62
     2
100
AcDbLine
 10
-300.0499996356328
 20
-193.8052820826871
 30
0.0
 11
-303.3499996356327
 21
-193.8052820826871
 31
0.0
  0
LINE
  5
19C
330
4E
100
AcDbEntity
  8
1
  6
DOT_CENTER
 62
     2
100
AcDbLine
 10
-301.6999996356328
 20
-192.1552820826871
 30
0.0
 11
-301.6999996356328
 21
-195.4552820826872
 31
0.0
  0
LINE
  5
19D
330
4E
100
AcDbEntity
  8
1
  6
DOT_CENTER
 62
     2
100
AcDbLine
 10
-327.0999996356328
 20
-196.0052820826872
 30
0.0
 11
-334.7999996356328
 21
-196.0052820826872
 31
0.0
  0
LINE
  5
19E
330
4E
100
AcDbEntity
  8
1
  6
DOT_CENTER
 62
     2
100
AcDbLine
 10
-330.9499996356328
 20
-192.1552820826872
 30
0.0
 11
-330.9499996356328
 21
-199.8552820826871
 31
0.0
  0
ARC
  5
19F
330
4E
100
AcDbEntity
  8
0
  6
Continuous
 62
     7
100
AcDbCircle
 10
-330.9499996356328
 20
-196.0052820826872
 30
0.0
 40
3.499999999999952
100
AcDbArc
 50
235.7027796515287
 51
304.2972203484713
  0
ARC
  5
1A0
330
4E
100
AcDbEntity
  8
0
  6
Continuous
 62
     7
100
AcDbCircle
 10
-330.9499996356328
 20
-196.0052820826872
 30
0.0
 40
3.499999999999999
100
AcDbArc
 50
124.2972203484708
 51
145.7027796515292
  0
ARC
  5
1A1
330
4E
100
AcDbEntity
  8
0
  6
Continuous
 62
     7
100
AcDbCircle
 10
-330.9499996356328
 20
-196.0052820826872
 30
0.0
 40
3.499999999999951
100
AcDbArc
 50
214.2972203484696
 51
235.7027796515287
  0
ARC
  5
1A2
330
4E
100
AcDbEntity
  8
0
  6
Continuous
 62
     7
100
AcDbCircle
 10
-330.9499996356328
 20
-196.0052820826872
 30
0.0
 40
3.499999999999999
100
AcDbArc
 50
145.7027796515292
 51
214.2972203484696
  0
ARC
  5
1A3
330
4E
100
AcDbEntity
  8
0
  6
Continuous
 62
     7
100
AcDbCircle
 10
-338.2499996356328
 20
-196.9052820826872
 30
0.0
 40
4.0
100
AcDbArc
 50
180.0
 51
261.373073441321
  0
ARC
  5
1A4
330
4E
100
AcDbEntity
  8
0
  6
Continuous
 62
     7
100
AcDbCircle
 10
-338.2499996356328
 20
-196.9052820826872
 30
0.0
 40
6.0
100
AcDbArc
 50
180.0
 51
264.2608295227329
  0
ARC
  5
1A5
330
4E
100
AcDbEntity
  8
0
  6
Continuous
 62
     7
100
AcDbCircle
 10
-338.2499996356328
 20
-195.1052820826872
 30
0.0
 40
4.000000000000085
100
AcDbArc
 50
98.62692655867878
 51
180.0
  0
ARC
  5
1A6
330
4E
100
AcDbEntity
  8
0
  6
Continuous
 62
     7
100
AcDbCircle
 10
-338.2499996356328
 20
-195.1052820826872
 30
0.0
 40
6.000000000000091
100
AcDbArc
 50
95.73917047726692
 51
180.0
  0
ARC
  5
1A7
330
4E
100
AcDbEntity
  8
0
  6
Continuous
 62
     7
100
AcDbCircle
 10
-330.9499996356328
 20
-196.0052820826872
 30
0.0
 40
3.499999999999999
100
AcDbArc
 50
55.70277965152923
 51
124.2972203484708
  0
ARC
  5
1A8
330
4E
100
AcDbEntity
  8
0
  6
Continuous
 62
     7
100
AcDbCircle
 10
-265.8499996356328
 20
-196.0052820826872
 30
0.0
 40
3.499999999999904
100
AcDbArc
 50
325.7027796515298
 51
0.0
  0
ARC
  5
1A9
330
4E
100
AcDbEntity
  8
0
  6
Continuous
 62
     7
100
AcDbCircle
 10
-265.8499996356328
 20
-196.0052820826872
 30
0.0
 40
3.499999999999888
100
AcDbArc
 50
235.7027796515302
 51
304.2972203484713
  0
ARC
  5
1AA
330
4E
100
AcDbEntity
  8
0
  6
Continuous
 62
     7
100
AcDbCircle
 10
-265.8499996356328
 20
-196.0052820826872
 30
0.0
 40
3.499999999999904
100
AcDbArc
 50
214.2972203484701
 51
235.7027796515302
  0
ARC
  5
1AB
330
4E
100
AcDbEntity
  8
0
  6
Continuous
 62
     7
100
AcDbCircle
 10
-265.8499996356328
 20
-196.0052820826872
 30
0.0
 40
3.499999999999952
100
AcDbArc
 50
304.2972203484713
 51
325.7027796515298
  0
ARC
  5
1AC
330
4E
100
AcDbEntity
  8
0
  6
Continuous
 62
     7
100
AcDbCircle
 10
-265.8499996356328
 20
-196.0052820826872
 30
0.0
 40
3.499999999999952
100
AcDbArc
 50
145.7027796515287
 51
214.2972203484701
  0
ARC
  5
1AD
330
4E
100
AcDbEntity
  8
0
  6
Continuous
 62
     7
100
AcDbCircle
 10
-265.8499996356328
 20
-196.0052820826872
 30
0.0
 40
3.499999999999952
100
AcDbArc
 50
34.29722034847131
 51
55.70277965152923
  0
ARC
  5
1AE
330
4E
100
AcDbEntity
  8
0
  6
Continuous
 62
     7
100
AcDbCircle
 10
-265.8499996356328
 20
-196.0052820826872
 30
0.0
 40
3.5
100
AcDbArc
 50
0.0
 51
34.29722034847131
  0
ARC
  5
1AF
330
4E
100
AcDbEntity
  8
0
  6
Continuous
 62
     7
100
AcDbCircle
 10
-265.8499996356328
 20
-196.0052820826872
 30
0.0
 40
3.499999999999999
100
AcDbArc
 50
55.70277965152923
 51
124.2972203484693
  0
ARC
  5
1B0
330
4E
100
AcDbEntity
  8
0
  6
Continuous
 62
     7
100
AcDbCircle
 10
-265.8499996356328
 20
-196.0052820826872
 30
0.0
 40
3.499999999999935
100
AcDbArc
 50
124.2972203484693
 51
145.7027796515287
  0
ARC
  5
1B1
330
4E
100
AcDbEntity
  8
0
  6
Continuous
 62
     7
100
AcDbCircle
 10
-330.9499996356328
 20
-196.0052820826872
 30
0.0
 40
3.500000000000046
100
AcDbArc
 50
34.29722034847025
 51
55.70277965152923
  0
ARC
  5
1B2
330
4E
100
AcDbEntity
  8
0
  6
Continuous
 62
     7
100
AcDbCircle
 10
-330.9499996356328
 20
-196.0052820826872
 30
0.0
 40
3.499999999999952
100
AcDbArc
 50
304.2972203484713
 51
325.7027796515309
  0
ARC
  5
1B3
330
4E
100
AcDbEntity
  8
0
  6
Continuous
 62
     7
100
AcDbCircle
 10
-330.9499996356328
 20
-196.0052820826872
 30
0.0
 40
3.499999999999997
100
AcDbArc
 50
325.7027796515309
 51
0.0
  0
ARC
  5
1B4
330
4E
100
AcDbEntity
  8
0
  6
Continuous
 62
     7
100
AcDbCircle
 10
-330.9499996356328
 20
-196.0052820826872
 30
0.0
 40
3.5
100
AcDbArc
 50
0.0
 51
34.29722034847025
  0
CIRCLE
  5
1B5
330
4E
100
AcDbEntity
  8
0
  6
Continuous
 62
     7
100
AcDbCircle
 10
-301.6999996356328
 20
-198.3052820826871
 30
0.0
 40
1.5
  0
CIRCLE
  5
1B6
330
4E
100
AcDbEntity
  8
0
  6
Continuous
 62
     7
100
AcDbCircle
 10
-301.6999996356328
 20
-193.8052820826871
 30
0.0
 40
1.5
  0
ENDBLK
  5
50
330
4E
100
AcDbEntity
  8
0
100
AcDbBlockEnd
  0
BLOCK
  5
53
330
51
100
AcDbEntity
  8
0
100
AcDbBlockBegin
  2
Drfsicht1
 70
     0
 10
-301.0999999047539
 20
-196.0052817012225
 30
0.0
  3
Drfsicht1
  1

  0
INSERT
  5
52
330
51
100
AcDbEntity
  8
0
100
AcDbBlockReference
  2
UK_10_3-HESI_1000V-select__2
 10
-344.2499996356328
 20
-204.9052820826872
 30
0.0
  0
MTEXT
  5
1B7
330
51
100
AcDbEntity
  8
1
 62
     6
100
AcDbMText
 10
-301.0999999047526
 20
-209.9052813197528
 30
0.0
 40
5.0
 41
0.0
 71
     2
 72
     1
  1
 
  7
CONVERTER_11
 73
     1
 44
1.32052821128451
  0
DIMENSION
  5
1C2
330
51
100
AcDbEntity
  8
1
100
AcDbDimension
  2
*D17
 10
-354.2499996356328
 20
-204.9052820826872
 30
0.0
 11
-357.6749996356328
 21
-196.0052820826871
 31
0.0
 70
    33
  1
<>
 71
     5
 42
-1.0
 53
90.0
  3
ME10_DIM_10
100
AcDbAlignedDimension
 13
-338.8499996356328
 23
-187.1052820826872
 33
0.0
 14
-338.8499996356328
 24
-204.9052820826872
 34
0.0
  0
ENDBLK
  5
54
330
51
100
AcDbEntity
  8
0
100
AcDbBlockEnd
  0
BLOCK
  5
56
330
55
100
AcDbEntity
  8
0
100
AcDbBlockBegin
  2
UK_10_3-HESI_1000V-select__3
 70
     0
 10
-217.150000269001
 20
-149.1052828144372
 30
0.0
  3
UK_10_3-HESI_1000V-select__3
  1

  0
LINE
  5
1C3
330
55
100
AcDbEntity
  8
0
  6
Continuous
 62
     7
100
AcDbLine
 10
-197.7070072820933
 20
-85.74827580134496
 30
0.0
 11
-195.2227275417283
 21
-88.23255554170998
 31
0.0
  0
LINE
  5
1C4
330
55
100
AcDbEntity
  8
0
  6
Continuous
 62
     7
100
AcDbLine
 10
-176.8274076951056
 20
-87.92367927204897
 30
0.0
 11
-176.9265140233447
 21
-88.03159168377476
 31
0.0
  0
LINE
  5
1C5
330
55
100
AcDbEntity
  8
0
  6
Continuous
 62
     7
100
AcDbLine
 10
-176.8363520839965
 20
-88.28167198857784
 30
0.0
 11
-176.9604600428178
 21
-88.83853128066272
 31
0.0
  0
LINE
  5
1C6
330
55
100
AcDbEntity
  8
0
  6
Continuous
 62
     7
100
AcDbLine
 10
-175.950000269001
 20
-88.98392581443724
 30
0.0
 11
-175.950000269001
 21
-88.31798663632814
 31
0.0
  0
LINE
  5
1C7
330
55
100
AcDbEntity
  8
0
  6
Continuous
 62
     7
100
AcDbLine
 10
-175.950000269001
 20
-89.99354600654281
 30
0.0
 11
-175.950000269001
 21
-88.98392581443724
 31
0.0
  0
LINE
  5
1C8
330
55
100
AcDbEntity
  8
0
  6
Continuous
 62
     7
100
AcDbLine
 10
-199.150000269001
 20
-91.50528281443727
 30
0.0
 11
-195.2227275417283
 21
-88.23255554170998
 31
0.0
  0
LINE
  5
1C9
330
55
100
AcDbEntity
  8
0
  6
Continuous
 62
     7
100
AcDbLine
 10
-177.5572534709327
 20
-89.21779056421344
 30
0.0
 11
-182.7547341605482
 21
-88.05942124440341
 31
0.0
  0
LINE
  5
1CA
330
55
100
AcDbEntity
  8
0
  6
Continuous
 62
     7
100
AcDbLine
 10
-183.1339934440978
 20
-87.46262781628886
 30
0.0
 11
-183.0098854852766
 21
-86.90576852420348
 31
0.0
  0
LINE
  5
1CB
330
55
100
AcDbEntity
  8
0
  6
Continuous
 62
     7
100
AcDbLine
 10
-182.8220601737129
 20
-86.71764360163121
 30
0.0
 11
-182.8445221299589
 21
-86.64612385865485
 31
0.0
  0
LINE
  5
1CC
330
55
100
AcDbEntity
  8
0
  6
Continuous
 62
     7
100
AcDbLine
 10
-175.950000269001
 20
-88.98392581443724
 30
0.0
 11
-174.153136340515
 21
-89.52257241211184
 31
0.0
  0
LINE
  5
1CD
330
55
100
AcDbEntity
  8
0
  6
Continuous
 62
     7
100
AcDbLine
 10
-194.350000269001
 20
-143.3052828144372
 30
0.0
 11
-159.050000269001
 21
-143.3052828144372
 31
0.0
  0
LINE
  5
1CE
330
55
100
AcDbEntity
  8
0
  6
Continuous
 62
     7
100
AcDbLine
 10
-194.350000269001
 20
-143.3052828144372
 30
0.0
 11
-194.350000269001
 21
-144.4052828144372
 31
0.0
  0
LINE
  5
1CF
330
55
100
AcDbEntity
  8
0
  6
Continuous
 62
     7
100
AcDbLine
 10
-194.350000269001
 20
-144.4052828144372
 30
0.0
 11
-191.650000269001
 21
-147.3052828144372
 31
0.0
  0
LINE
  5
1D0
330
55
100
AcDbEntity
  8
0
  6
Continuous
 62
     7
100
AcDbLine
 10
-191.650000269001
 20
-147.3052828144372
 30
0.0
 11
-203.150000269001
 21
-147.3052828144372
 31
0.0
  0
LINE
  5
1D1
330
55
100
AcDbEntity
  8
0
  6
Continuous
 62
     7
100
AcDbLine
 10
-159.050000269001
 20
-144.1752828144373
 30
0.0
 11
-159.050000269001
 21
-143.3052828144372
 31
0.0
  0
LINE
  5
1D2
330
55
100
AcDbEntity
  8
0
  6
Continuous
 62
     7
100
AcDbLine
 10
-159.050000269001
 20
-145.6052828144372
 30
0.0
 11
-159.050000269001
 21
-144.1752828144373
 31
0.0
  0
LINE
  5
1D3
330
55
100
AcDbEntity
  8
0
  6
Continuous
 62
     7
100
AcDbLine
 10
-160.5602169498737
 20
-144.7458091161003
 30
0.0
 11
-159.050000269001
 21
-144.1752828144373
 31
0.0
  0
LINE
  5
1D4
330
55
100
AcDbEntity
  8
0
  6
Continuous
 62
     7
100
AcDbLine
 10
-203.150000269001
 20
-147.3052828144372
 30
0.0
 11
-217.150000269001
 21
-143.3052828144372
 31
0.0
  0
LINE
  5
1D5
330
55
100
AcDbEntity
  8
0
  6
Continuous
 62
     7
100
AcDbLine
 10
-154.250000269001
 20
-94.00528281443727
 30
0.0
 11
-157.2206695498545
 21
-94.00528281443727
 31
0.0
  0
LINE
  5
1D6
330
55
100
AcDbEntity
  8
0
  6
Continuous
 62
     7
100
AcDbLine
 10
-157.2206695498545
 20
-94.00528281443727
 30
0.0
 11
-172.8417670298799
 21
-89.2885761100857
 31
0.0
  0
LINE
  5
1D7
330
55
100
AcDbEntity
  8
0
  6
Continuous
 62
     7
100
AcDbLine
 10
-186.1500002690011
 20
-97.30528281443723
 30
0.0
 11
-195.2227275417283
 21
-88.23255554170998
 31
0.0
  0
LINE
  5
1D8
330
55
100
AcDbEntity
  8
0
  6
Continuous
 62
     7
100
AcDbLine
 10
-156.350000269001
 20
-148.3052828144373
 30
0.0
 11
-156.350000269001
 21
-148.8724401019627
 31
0.0
  0
LINE
  5
1D9
330
55
100
AcDbEntity
  8
0
  6
Continuous
 62
     7
100
AcDbLine
 10
-156.350000269001
 20
-148.3052828144373
 30
0.0
 11
-155.550000269001
 21
-149.1052828144372
 31
0.0
  0
LINE
  5
1DA
330
55
100
AcDbEntity
  8
0
  6
Continuous
 62
     7
100
AcDbLine
 10
-159.050000269001
 20
-145.6052828144372
 30
0.0
 11
-156.350000269001
 21
-148.3052828144373
 31
0.0
  0
LINE
  5
1DB
330
55
100
AcDbEntity
  8
0
  6
Continuous
 62
     7
100
AcDbLine
 10
-136.250000269001
 20
-147.6552828144373
 30
0.0
 11
-130.850000269001
 21
-147.6552828144373
 31
0.0
  0
LINE
  5
1DC
330
55
100
AcDbEntity
  8
0
  6
Continuous
 62
     7
100
AcDbLine
 10
-130.850000269001
 20
-147.6552828144373
 30
0.0
 11
-130.850000269001
 21
-144.8552828144373
 31
0.0
  0
LINE
  5
1DD
330
55
100
AcDbEntity
  8
0
  6
Continuous
 62
     7
100
AcDbLine
 10
-136.250000269001
 20
-144.8552828144373
 30
0.0
 11
-130.850000269001
 21
-144.8552828144373
 31
0.0
  0
LINE
  5
1DE
330
55
100
AcDbEntity
  8
0
  6
Continuous
 62
     7
100
AcDbLine
 10
-155.550000269001
 20
-149.1052828144372
 30
0.0
 11
-136.250000269001
 21
-149.1052828144372
 31
0.0
  0
LINE
  5
1DF
330
55
100
AcDbEntity
  8
0
  6
Continuous
 62
     7
100
AcDbLine
 10
-160.6309581923673
 20
-145.074324891071
 30
0.0
 11
-156.6914216252383
 21
-149.0138614582
 31
0.0
  0
LINE
  5
1E0
330
55
100
AcDbEntity
  8
0
  6
Continuous
 62
     7
100
AcDbLine
 10
-136.250000269001
 20
-106.3052828144372
 30
0.0
 11
-154.250000269001
 21
-106.3052828144372
 31
0.0
  0
LINE
  5
1E1
330
55
100
AcDbEntity
  8
0
  6
Continuous
 62
     7
100
AcDbLine
 10
-217.150000269001
 20
-106.3052828144372
 30
0.0
 11
-199.150000269001
 21
-106.3052828144372
 31
0.0
  0
LINE
  5
1E2
330
55
100
AcDbEntity
  8
0
  6
Continuous
 62
     7
100
AcDbLine
 10
-136.250000269001
 20
-106.3052828144372
 30
0.0
 11
-136.250000269001
 21
-144.8552828144373
 31
0.0
  0
LINE
  5
1E3
330
55
100
AcDbEntity
  8
0
  6
Continuous
 62
     7
100
AcDbLine
 10
-136.250000269001
 20
-144.8552828144373
 30
0.0
 11
-136.250000269001
 21
-147.6552828144373
 31
0.0
  0
LINE
  5
1E4
330
55
100
AcDbEntity
  8
0
  6
Continuous
 62
     7
100
AcDbLine
 10
-136.250000269001
 20
-147.6552828144373
 30
0.0
 11
-136.250000269001
 21
-149.1052828144372
 31
0.0
  0
LINE
  5
1E5
330
55
100
AcDbEntity
  8
0
  6
Continuous
 62
     7
100
AcDbLine
 10
-154.250000269001
 20
-106.3052828144372
 30
0.0
 11
-154.250000269001
 21
-94.00528281443727
 31
0.0
  0
LINE
  5
1E6
330
55
100
AcDbEntity
  8
0
  6
Continuous
 62
     7
100
AcDbLine
 10
-217.150000269001
 20
-143.3052828144372
 30
0.0
 11
-217.150000269001
 21
-106.3052828144372
 31
0.0
  0
LINE
  5
1E7
330
55
100
AcDbEntity
  8
0
  6
Continuous
 62
     7
100
AcDbLine
 10
-199.150000269001
 20
-106.3052828144372
 30
0.0
 11
-199.150000269001
 21
-91.50528281443727
 31
0.0
  0
ARC
  5
1E8
330
55
100
AcDbEntity
  8
0
  6
Continuous
 62
     7
100
AcDbCircle
 10
-183.2261435363646
 20
-86.76597836283355
 30
0.0
 40
0.3999999999987201
100
AcDbArc
 50
17.43575739994678
 51
72.4678815445044
  0
ARC
  5
1E9
330
55
100
AcDbEntity
  8
0
  6
Continuous
 62
     7
100
AcDbCircle
 10
-176.5327999465245
 20
-88.19424585253509
 30
0.0
 40
0.400000000000001
100
AcDbArc
 50
76.01402128691755
 51
137.4357574000706
  0
ARC
  5
1EA
330
55
100
AcDbEntity
  8
0
  6
Continuous
 62
     7
100
AcDbCircle
 10
-200.6045701600795
 20
-184.8415938698802
 30
0.0
 40
100.0000000000001
100
AcDbArc
 50
75.95053450128594
 51
76.01402128692385
  0
ARC
  5
1EB
330
55
100
AcDbEntity
  8
0
  6
Continuous
 62
     7
100
AcDbCircle
 10
-176.8160361176268
 20
-88.13305415145707
 30
0.0
 40
0.1500000000000009
100
AcDbArc
 50
137.435757400068
 51
262.2159492471716
  0
ARC
  5
1EC
330
55
100
AcDbEntity
  8
0
  6
Continuous
 62
     7
100
AcDbCircle
 10
-169.9861599283613
 20
-109.0836640887171
 30
0.0
 40
20.00000000000002
100
AcDbArc
 50
98.20876551774982
 51
107.34904379214
  0
ARC
  5
1ED
330
55
100
AcDbEntity
  8
0
  6
Continuous
 62
     7
100
AcDbCircle
 10
-176.450000269001
 20
-88.31798663632814
 30
0.0
 40
0.5
100
AcDbArc
 50
0.0
 51
75.95053450128253
  0
ARC
  5
1EE
330
55
100
AcDbEntity
  8
0
  6
Continuous
 62
     7
100
AcDbCircle
 10
-177.44848639865
 20
-88.72976420838035
 30
0.0
 40
0.5000000000006827
100
AcDbArc
 50
257.4357573999971
 51
347.4357574000098
  0
ARC
  5
1EF
330
55
100
AcDbEntity
  8
0
  6
Continuous
 62
     7
100
AcDbCircle
 10
-182.6459670882657
 20
-87.57139488857118
 30
0.0
 40
0.4999999999996175
100
AcDbArc
 50
167.4357574000133
 51
257.4357573999978
  0
ARC
  5
1F0
330
55
100
AcDbEntity
  8
0
  6
Continuous
 62
     7
100
AcDbCircle
 10
-182.965168201115
 20
-86.76258904069726
 30
0.0
 40
0.1499999999996558
100
AcDbArc
 50
252.6555655526222
 51
17.43575739960169
  0
ARC
  5
1F1
330
55
100
AcDbEntity
  8
0
  6
Continuous
 62
     7
100
AcDbCircle
 10
-200.6045701600846
 20
-184.8415938698789
 30
0.0
 40
100.0000000000001
100
AcDbArc
 50
79.92196876935495
 51
88.12755374684224
  0
ARC
  5
1F2
330
55
100
AcDbEntity
  8
0
  6
Continuous
 62
     7
100
AcDbCircle
 10
-160.48953683613
 20
-144.9329035348336
 30
0.0
 40
0.1999999999999369
100
AcDbArc
 50
110.6954507340714
 51
225.0000000000173
  0
ARC
  5
1F3
330
55
100
AcDbEntity
  8
0
  6
Continuous
 62
     7
100
AcDbCircle
 10
-164.850000269001
 20
-92.30916316634861
 30
0.0
 40
0.7999999999999782
100
AcDbArc
 50
68.8734471796142
 51
116.5649373242636
  0
ARC
  5
1F4
330
55
100
AcDbEntity
  8
0
  6
Continuous
 62
     7
100
AcDbCircle
 10
-200.6045701600846
 20
-184.8415938698789
 30
0.0
 40
100.0000000000001
100
AcDbArc
 50
68.42828139642721
 51
68.8734471796101
  0
ARC
  5
1F5
330
55
100
AcDbEntity
  8
0
  6
Continuous
 62
     7
100
AcDbCircle
 10
-168.250000269001
 20
-103.0052828144373
 30
0.0
 40
12.00000000000004
100
AcDbArc
 50
62.82615671487727
 51
68.42828139642765
  0
ARC
  5
1F6
330
55
100
AcDbEntity
  8
0
  6
Continuous
 62
     7
100
AcDbCircle
 10
-197.3534538915
 20
-85.39472241075174
 30
0.0
 40
0.4999999999999932
100
AcDbArc
 50
88.12755374684464
 51
224.9999999999954
  0
ARC
  5
1F7
330
55
100
AcDbEntity
  8
0
  6
Continuous
 62
     7
100
AcDbCircle
 10
-156.550000269001
 20
-148.8724401019627
 30
0.0
 40
0.1999999999999895
100
AcDbArc
 50
225.0000000000057
 51
0.0
  0
ARC
  5
1F8
330
55
100
AcDbEntity
  8
0
  6
Continuous
 62
     7
100
AcDbCircle
 10
-169.9861599283613
 20
-109.0836640887171
 30
0.0
 40
19.99999999999998
100
AcDbArc
 50
107.34904379214
 51
143.9196608501253
  0
ENDBLK
  5
57
330
55
100
AcDbEntity
  8
0
100
AcDbBlockEnd
  0
BLOCK
  5
5A
330
58
100
AcDbEntity
  8
0
100
AcDbBlockBegin
  2
Rckans1
 70
     0
 10
-173.99999999988
 20
-117.0000007467269
 30
0.0
  3
Rckans1
  1

  0
INSERT
  5
59
330
58
100
AcDbEntity
  8
0
100
AcDbBlockReference
  2
UK_10_3-HESI_1000V-select__3
 10
-217.150000269001
 20
-149.1052828144372
 30
0.0
  0
MTEXT
  5
1F9
330
58
100
AcDbEntity
  8
1
 62
     6
100
AcDbMText
 10
-173.99999999988
 20
-154.105281829429
 30
0.0
 40
5.0
 41
0.0
 71
     2
 72
     1
  1
 
  7
CONVERTER_11
 73
     1
 44
1.32052821128451
  0
ENDBLK
  5
5B
330
58
100
AcDbEntity
  8
0
100
AcDbBlockEnd
  0
BLOCK
  5
5D
330
5C
100
AcDbEntity
  8
0
100
AcDbBlockBegin
  2
UK_10_3-HESI_1000V-select__4
 70
     0
 10
-245.9499995708546
 20
-149.1052828144373
 30
0.0
  3
UK_10_3-HESI_1000V-select__4
  1

  0
LINE
  5
1FA
330
5C
100
AcDbEntity
  8
0
  6
Continuous
 62
     2
100
AcDbLine
 10
-245.4499995708545
 20
-87.83294338389824
 30
0.0
 11
-228.5499995708545
 21
-87.83294338389824
 31
0.0
  0
LINE
  5
1FB
330
5C
100
AcDbEntity
  8
0
  6
Continuous
 62
     7
100
AcDbLine
 10
-245.4499995708545
 20
-87.80610389262608
 30
0.0
 11
-245.4499995708545
 21
-87.83294338389824
 31
0.0
  0
LINE
  5
1FC
330
5C
100
AcDbEntity
  8
0
  6
Continuous
 62
     7
100
AcDbLine
 10
-245.4499995708545
 20
-87.79424585253508
 30
0.0
 11
-245.4499995708545
 21
-87.80610389262608
 31
0.0
  0
LINE
  5
1FD
330
5C
100
AcDbEntity
  8
0
  6
Continuous
 62
     7
100
AcDbLine
 10
-245.4499995708545
 20
-87.46262781628886
 30
0.0
 11
-245.4499995708545
 21
-87.79424585253508
 31
0.0
  0
LINE
  5
1FE
330
5C
100
AcDbEntity
  8
0
  6
Continuous
 62
     7
100
AcDbLine
 10
-245.4499995708545
 20
-86.71764360163121
 30
0.0
 11
-245.4499995708545
 21
-86.64612385865485
 31
0.0
  0
LINE
  5
1FF
330
5C
100
AcDbEntity
  8
0
  6
Continuous
 62
     7
100
AcDbLine
 10
-245.4499995708545
 20
-86.64612385865485
 30
0.0
 11
-245.4499995708545
 21
-86.38455906946821
 31
0.0
  0
LINE
  5
200
330
5C
100
AcDbEntity
  8
0
  6
Continuous
 62
     2
100
AcDbLine
 10
-245.4499995708545
 20
-87.80610389262608
 30
0.0
 11
-228.5499995708545
 21
-87.80610389262608
 31
0.0
  0
LINE
  5
201
330
5C
100
AcDbEntity
  8
0
  6
Continuous
 62
     7
100
AcDbLine
 10
-245.4499995708545
 20
-87.83294338389824
 30
0.0
 11
-245.4499995708545
 21
-88.23255554170997
 31
0.0
  0
LINE
  5
202
330
5C
100
AcDbEntity
  8
0
  6
Continuous
 62
     7
100
AcDbLine
 10
-245.4499995708545
 20
-86.91258904069693
 30
0.0
 11
-245.4499995708545
 21
-86.71764360163121
 31
0.0
  0
LINE
  5
203
330
5C
100
AcDbEntity
  8
0
  6
Continuous
 62
     7
100
AcDbLine
 10
-245.4499995708545
 20
-87.46262781628886
 30
0.0
 11
-245.4499995708545
 21
-86.91258904069693
 31
0.0
  0
LINE
  5
204
330
5C
100
AcDbEntity
  8
0
  6
Continuous
 62
     7
100
AcDbLine
 10
-245.4499995708545
 20
-86.91258904069693
 30
0.0
 11
-228.5499995708545
 21
-86.91258904069693
 31
0.0
  0
LINE
  5
205
330
5C
100
AcDbEntity
  8
0
  6
Continuous
 62
     2
100
AcDbLine
 10
-245.4499995708545
 20
-87.46262781628886
 30
0.0
 11
-228.5499995708545
 21
-87.46262781628886
 31
0.0
  0
LINE
  5
206
330
5C
100
AcDbEntity
  8
0
  6
Continuous
 62
     2
100
AcDbLine
 10
-245.4499995708545
 20
-86.71764360163121
 30
0.0
 11
-228.5499995708545
 21
-86.71764360163121
 31
0.0
  0
LINE
  5
207
330
5C
100
AcDbEntity
  8
0
  6
Continuous
 62
     7
100
AcDbLine
 10
-245.4499995708545
 20
-87.79424585253508
 30
0.0
 11
-228.5499995708545
 21
-87.79424585253508
 31
0.0
  0
LINE
  5
208
330
5C
100
AcDbEntity
  8
0
  6
Continuous
 62
     2
100
AcDbLine
 10
-245.4499995708545
 20
-86.64612385865485
 30
0.0
 11
-228.5499995708545
 21
-86.64612385865485
 31
0.0
  0
LINE
  5
209
330
5C
100
AcDbEntity
  8
0
  6
Continuous
 62
     2
100
AcDbLine
 10
-245.4499995708545
 20
-88.31798663632814
 30
0.0
 11
-228.5499995708545
 21
-88.31798663632814
 31
0.0
  0
LINE
  5
20A
330
5C
100
AcDbEntity
  8
0
  6
Continuous
 62
     7
100
AcDbLine
 10
-245.4499995708545
 20
-84.89472241075174
 30
0.0
 11
-228.5499995708545
 21
-84.89472241075174
 31
0.0
  0
LINE
  5
20B
330
5C
100
AcDbEntity
  8
0
  6
Continuous
 62
     7
100
AcDbLine
 10
-245.4499995708545
 20
-84.89472241075174
 30
0.0
 11
-245.4499995708545
 21
-84.89498938834407
 31
0.0
  0
LINE
  5
20C
330
5C
100
AcDbEntity
  8
0
  6
Continuous
 62
     7
100
AcDbLine
 10
-245.4499995708545
 20
-84.89498938834407
 30
0.0
 11
-245.4499995708545
 21
-86.38455906946821
 31
0.0
  0
LINE
  5
20D
330
5C
100
AcDbEntity
  8
0
  6
Continuous
 62
     2
100
AcDbLine
 10
-228.5499995708545
 20
-84.89498938834407
 30
0.0
 11
-245.4499995708545
 21
-84.89498938834407
 31
0.0
  0
LINE
  5
20E
330
5C
100
AcDbEntity
  8
0
  6
Continuous
 62
     7
100
AcDbLine
 10
-243.9499995708545
 20
-88.98392581443724
 30
0.0
 11
-230.0499995708545
 21
-88.98392581443724
 31
0.0
  0
LINE
  5
20F
330
5C
100
AcDbEntity
  8
0
  6
Continuous
 62
     7
100
AcDbLine
 10
-245.9499995708545
 20
-89.2885761100857
 30
0.0
 11
-244.5499995708545
 21
-89.2885761100857
 31
0.0
  0
LINE
  5
210
330
5C
100
AcDbEntity
  8
0
  6
Continuous
 62
     7
100
AcDbLine
 10
-244.5499995708545
 20
-94.00528281443727
 30
0.0
 11
-244.5499995708545
 21
-89.2885761100857
 31
0.0
  0
LINE
  5
211
330
5C
100
AcDbEntity
  8
0
  6
Continuous
 62
     7
100
AcDbLine
 10
-243.9499995708545
 20
-91.50916316634861
 30
0.0
 11
-230.0499995708545
 21
-91.50916316634861
 31
0.0
  0
LINE
  5
212
330
5C
100
AcDbEntity
  8
0
  6
Continuous
 62
     7
100
AcDbLine
 10
-244.5499995708545
 20
-94.00528281443727
 30
0.0
 11
-245.9499995708545
 21
-94.00528281443727
 31
0.0
  0
LINE
  5
213
330
5C
100
AcDbEntity
  8
0
  6
Continuous
 62
     2
100
AcDbLine
 10
-243.9499995708545
 20
-91.56293388648143
 30
0.0
 11
-230.0499995708545
 21
-91.56293388648143
 31
0.0
  0
LINE
  5
214
330
5C
100
AcDbEntity
  8
0
  6
Continuous
 62
     2
100
AcDbLine
 10
-243.9499995708545
 20
-91.84578585233157
 30
0.0
 11
-230.0499995708545
 21
-91.84578585233157
 31
0.0
  0
LINE
  5
215
330
5C
100
AcDbEntity
  8
0
  6
Continuous
 62
     7
100
AcDbLine
 10
-245.9499995708545
 20
-106.3052828144372
 30
0.0
 11
-228.1499995708545
 21
-106.3052828144372
 31
0.0
  0
LINE
  5
216
330
5C
100
AcDbEntity
  8
0
  6
Continuous
 62
     7
100
AcDbLine
 10
-230.0499995708545
 20
-91.38208892132724
 30
0.0
 11
-243.9499995708545
 21
-91.38208892132724
 31
0.0
  0
LINE
  5
217
330
5C
100
AcDbEntity
  8
0
  6
Continuous
 62
     7
100
AcDbLine
 10
-229.5499995708545
 20
-94.00528281443727
 30
0.0
 11
-244.5499995708545
 21
-94.00528281443727
 31
0.0
  0
LINE
  5
218
330
5C
100
AcDbEntity
  8
0
  6
Continuous
 62
     7
100
AcDbLine
 10
-245.4499995708545
 20
-86.38455906946821
 30
0.0
 11
-228.5499995708545
 21
-86.38455906946821
 31
0.0
  0
LINE
  5
219
330
5C
100
AcDbEntity
  8
0
  6
Continuous
 62
     7
100
AcDbLine
 10
-245.9499995708545
 20
-89.2885761100857
 30
0.0
 11
-245.9499995708545
 21
-88.23255554170998
 31
0.0
  0
LINE
  5
21A
330
5C
100
AcDbEntity
  8
0
  6
Continuous
 62
     7
100
AcDbLine
 10
-245.9499995708545
 20
-94.00528281443727
 30
0.0
 11
-245.9499995708545
 21
-89.2885761100857
 31
0.0
  0
LINE
  5
21B
330
5C
100
AcDbEntity
  8
0
  6
Continuous
 62
     7
100
AcDbLine
 10
-245.9499995708545
 20
-106.3052828144372
 30
0.0
 11
-245.9499995708545
 21
-94.00528281443727
 31
0.0
  0
LINE
  5
21C
330
5C
100
AcDbEntity
  8
0
  6
Continuous
 62
     7
100
AcDbLine
 10
-245.4499995708545
 20
-89.2885761100857
 30
0.0
 11
-245.4499995708545
 21
-88.31798663632814
 31
0.0
  0
LINE
  5
21D
330
5C
100
AcDbEntity
  8
0
  6
Continuous
 62
     7
100
AcDbLine
 10
-245.4499995708545
 20
-88.23255554170997
 30
0.0
 11
-245.4499995708545
 21
-88.31798663632814
 31
0.0
  0
LINE
  5
21E
330
5C
100
AcDbEntity
  8
0
  6
Continuous
 62
     7
100
AcDbLine
 10
-245.9499995708545
 20
-88.23255554170998
 30
0.0
 11
-245.4499995708545
 21
-88.23255554170997
 31
0.0
  0
LINE
  5
21F
330
5C
100
AcDbEntity
  8
0
  6
Continuous
 62
     7
100
AcDbLine
 10
-245.9499995708545
 20
-106.3052828144372
 30
0.0
 11
-245.9499995708546
 21
-149.1052828144372
 31
0.0
  0
LINE
  5
220
330
5C
100
AcDbEntity
  8
0
  6
Continuous
 62
     7
100
AcDbLine
 10
-240.8499995708546
 20
-132.3427828144372
 30
0.0
 11
-240.8499995708546
 21
-127.4052828144372
 31
0.0
  0
LINE
  5
221
330
5C
100
AcDbEntity
  8
0
  6
Continuous
 62
     7
100
AcDbLine
 10
-240.8499995708546
 20
-127.4052828144372
 30
0.0
 11
-233.2499995708545
 21
-127.4052828144372
 31
0.0
  0
LINE
  5
222
330
5C
100
AcDbEntity
  8
0
  6
Continuous
 62
     7
100
AcDbLine
 10
-233.2499995708545
 20
-127.4052828144372
 30
0.0
 11
-233.2499995708545
 21
-132.3427828144373
 31
0.0
  0
LINE
  5
223
330
5C
100
AcDbEntity
  8
0
  6
Continuous
 62
     7
100
AcDbLine
 10
-233.2499995708545
 20
-132.3427828144373
 30
0.0
 11
-237.0499995708545
 21
-135.6677828144373
 31
0.0
  0
LINE
  5
224
330
5C
100
AcDbEntity
  8
0
  6
Continuous
 62
     7
100
AcDbLine
 10
-241.2499995708546
 20
-149.0724401019626
 30
0.0
 11
-232.8499995708545
 21
-149.0724401019626
 31
0.0
  0
LINE
  5
225
330
5C
100
AcDbEntity
  8
0
  6
Continuous
 62
     7
100
AcDbLine
 10
-245.9499995708546
 20
-149.1052828144372
 30
0.0
 11
-241.2499995708545
 21
-149.1052828144372
 31
0.0
  0
LINE
  5
226
330
5C
100
AcDbEntity
  8
0
  6
Continuous
 62
     2
100
AcDbLine
 10
-241.2499995708546
 20
-148.8724401019627
 30
0.0
 11
-232.8499995708545
 21
-148.8724401019627
 31
0.0
  0
LINE
  5
227
330
5C
100
AcDbEntity
  8
0
  6
Continuous
 62
     7
100
AcDbLine
 10
-228.5499995708545
 20
-86.71764360163121
 30
0.0
 11
-228.5499995708545
 21
-86.64612385865485
 31
0.0
  0
LINE
  5
228
330
5C
100
AcDbEntity
  8
0
  6
Continuous
 62
     7
100
AcDbLine
 10
-228.5499995708545
 20
-86.71764360163121
 30
0.0
 11
-228.5499995708545
 21
-86.91258904069693
 31
0.0
  0
LINE
  5
229
330
5C
100
AcDbEntity
  8
0
  6
Continuous
 62
     7
100
AcDbLine
 10
-228.5499995708545
 20
-87.79424585253508
 30
0.0
 11
-228.5499995708545
 21
-87.80610389262608
 31
0.0
  0
LINE
  5
22A
330
5C
100
AcDbEntity
  8
0
  6
Continuous
 62
     7
100
AcDbLine
 10
-228.5499995708545
 20
-87.46262781628886
 30
0.0
 11
-228.5499995708545
 21
-87.79424585253508
 31
0.0
  0
LINE
  5
22B
330
5C
100
AcDbEntity
  8
0
  6
Continuous
 62
     7
100
AcDbLine
 10
-228.5499995708545
 20
-86.64612385865485
 30
0.0
 11
-228.5499995708545
 21
-86.38455906946821
 31
0.0
  0
LINE
  5
22C
330
5C
100
AcDbEntity
  8
0
  6
Continuous
 62
     7
100
AcDbLine
 10
-228.5499995708545
 20
-84.89472241075174
 30
0.0
 11
-228.5499995708545
 21
-84.89498938834407
 31
0.0
  0
LINE
  5
22D
330
5C
100
AcDbEntity
  8
0
  6
Continuous
 62
     7
100
AcDbLine
 10
-228.5499995708545
 20
-84.89498938834407
 30
0.0
 11
-228.5499995708545
 21
-86.38455906946821
 31
0.0
  0
LINE
  5
22E
330
5C
100
AcDbEntity
  8
0
  6
Continuous
 62
     7
100
AcDbLine
 10
-228.5499995708545
 20
-87.80610389262608
 30
0.0
 11
-228.5499995708545
 21
-87.83294338389824
 31
0.0
  0
LINE
  5
22F
330
5C
100
AcDbEntity
  8
0
  6
Continuous
 62
     7
100
AcDbLine
 10
-228.5499995708545
 20
-87.83294338389824
 30
0.0
 11
-228.5499995708545
 21
-88.23255554170997
 31
0.0
  0
LINE
  5
230
330
5C
100
AcDbEntity
  8
0
  6
Continuous
 62
     7
100
AcDbLine
 10
-228.5499995708545
 20
-87.46262781628886
 30
0.0
 11
-228.5499995708545
 21
-86.91258904069693
 31
0.0
  0
LINE
  5
231
330
5C
100
AcDbEntity
  8
0
  6
Continuous
 62
     7
100
AcDbLine
 10
-230.0499995708545
 20
-91.84578585233157
 30
0.0
 11
-230.0499995708545
 21
-94.00528281443727
 31
0.0
  0
LINE
  5
232
330
5C
100
AcDbEntity
  8
0
  6
Continuous
 62
     7
100
AcDbLine
 10
-228.1499995708545
 20
-94.00528281443727
 30
0.0
 11
-229.5499995708545
 21
-94.00528281443727
 31
0.0
  0
LINE
  5
233
330
5C
100
AcDbEntity
  8
0
  6
Continuous
 62
     7
100
AcDbLine
 10
-228.1499995708545
 20
-94.00528281443727
 30
0.0
 11
-228.1499995708545
 21
-106.3052828144372
 31
0.0
  0
LINE
  5
234
330
5C
100
AcDbEntity
  8
0
  6
Continuous
 62
     7
100
AcDbLine
 10
-228.1499995708545
 20
-88.23255554170998
 30
0.0
 11
-228.1499995708545
 21
-89.28857611008573
 31
0.0
  0
LINE
  5
235
330
5C
100
AcDbEntity
  8
0
  6
Continuous
 62
     7
100
AcDbLine
 10
-228.5499995708545
 20
-89.28857611008573
 30
0.0
 11
-228.5499995708545
 21
-88.31798663632814
 31
0.0
  0
LINE
  5
236
330
5C
100
AcDbEntity
  8
0
  6
Continuous
 62
     7
100
AcDbLine
 10
-228.5499995708545
 20
-88.23255554170997
 30
0.0
 11
-228.5499995708545
 21
-88.31798663632814
 31
0.0
  0
LINE
  5
237
330
5C
100
AcDbEntity
  8
0
  6
Continuous
 62
     7
100
AcDbLine
 10
-228.5499995708545
 20
-88.23255554170997
 30
0.0
 11
-228.1499995708545
 21
-88.23255554170998
 31
0.0
  0
LINE
  5
238
330
5C
100
AcDbEntity
  8
0
  6
Continuous
 62
     7
100
AcDbLine
 10
-228.1499995708545
 20
-89.28857611008573
 30
0.0
 11
-228.1499995708545
 21
-94.00528281443727
 31
0.0
  0
LINE
  5
239
330
5C
100
AcDbEntity
  8
0
  6
Continuous
 62
     7
100
AcDbLine
 10
-230.0499995708545
 20
-91.50916316634861
 30
0.0
 11
-230.0499995708545
 21
-91.56293388648143
 31
0.0
  0
LINE
  5
23A
330
5C
100
AcDbEntity
  8
0
  6
Continuous
 62
     7
100
AcDbLine
 10
-230.0499995708545
 20
-91.38208892132724
 30
0.0
 11
-230.0499995708545
 21
-91.50916316634861
 31
0.0
  0
LINE
  5
23B
330
5C
100
AcDbEntity
  8
0
  6
Continuous
 62
     7
100
AcDbLine
 10
-229.5499995708545
 20
-89.28857611008573
 30
0.0
 11
-228.1499995708545
 21
-89.28857611008573
 31
0.0
  0
LINE
  5
23C
330
5C
100
AcDbEntity
  8
0
  6
Continuous
 62
     7
100
AcDbLine
 10
-230.0499995708545
 20
-91.56293388648143
 30
0.0
 11
-230.0499995708545
 21
-91.84578585233157
 31
0.0
  0
LINE
  5
23D
330
5C
100
AcDbEntity
  8
0
  6
Continuous
 62
     7
100
AcDbLine
 10
-230.0499995708545
 20
-91.38208892132724
 30
0.0
 11
-230.0499995708545
 21
-88.98392581443724
 31
0.0
  0
LINE
  5
23E
330
5C
100
AcDbEntity
  8
0
  6
Continuous
 62
     7
100
AcDbLine
 10
-229.5499995708545
 20
-94.00528281443727
 30
0.0
 11
-229.5499995708545
 21
-89.28857611008573
 31
0.0
  0
LINE
  5
23F
330
5C
100
AcDbEntity
  8
0
  6
Continuous
 62
     7
100
AcDbLine
 10
-232.8499995708545
 20
-149.1052828144373
 30
0.0
 11
-228.1499995708545
 21
-149.1052828144373
 31
0.0
  0
LINE
  5
240
330
5C
100
AcDbEntity
  8
0
  6
Continuous
 62
     7
100
AcDbLine
 10
-228.1499995708545
 20
-106.3052828144372
 30
0.0
 11
-228.1499995708545
 21
-149.1052828144373
 31
0.0
  0
LINE
  5
241
330
5C
100
AcDbEntity
  8
0
  6
Continuous
 62
     7
100
AcDbLine
 10
-232.8499995708545
 20
-147.6552828144373
 30
0.0
 11
-230.1800749482148
 21
-147.6552828144373
 31
0.0
  0
LINE
  5
242
330
5C
100
AcDbEntity
  8
0
  6
Continuous
 62
     7
100
AcDbLine
 10
-232.8499995708545
 20
-149.1052828144373
 30
0.0
 11
-232.8499995708545
 21
-147.6552828144373
 31
0.0
  0
LINE
  5
243
330
5C
100
AcDbEntity
  8
0
  6
Continuous
 62
     7
100
AcDbLine
 10
-230.1800749482148
 20
-147.6552828144373
 30
0.0
 11
-230.1800749482148
 21
-144.8552828144373
 31
0.0
  0
LINE
  5
244
330
5C
100
AcDbEntity
  8
0
  6
Continuous
 62
     7
100
AcDbLine
 10
-243.9499995708545
 20
-91.84578585233157
 30
0.0
 11
-243.9499995708545
 21
-94.00528281443727
 31
0.0
  0
LINE
  5
245
330
5C
100
AcDbEntity
  8
0
  6
Continuous
 62
     7
100
AcDbLine
 10
-243.9499995708545
 20
-91.56293388648143
 30
0.0
 11
-243.9499995708545
 21
-91.50916316634861
 31
0.0
  0
LINE
  5
246
330
5C
100
AcDbEntity
  8
0
  6
Continuous
 62
     7
100
AcDbLine
 10
-243.9499995708545
 20
-91.50916316634861
 30
0.0
 11
-243.9499995708545
 21
-91.38208892132724
 31
0.0
  0
LINE
  5
247
330
5C
100
AcDbEntity
  8
0
  6
Continuous
 62
     7
100
AcDbLine
 10
-243.9499995708545
 20
-91.56293388648143
 30
0.0
 11
-243.9499995708545
 21
-91.84578585233157
 31
0.0
  0
LINE
  5
248
330
5C
100
AcDbEntity
  8
0
  6
Continuous
 62
     7
100
AcDbLine
 10
-243.9499995708545
 20
-88.98392581443724
 30
0.0
 11
-243.9499995708545
 21
-91.38208892132724
 31
0.0
  0
LINE
  5
249
330
5C
100
AcDbEntity
  8
0
  6
Continuous
 62
     7
100
AcDbLine
 10
-243.9199241934943
 20
-147.6552828144373
 30
0.0
 11
-243.9199241934943
 21
-144.8552828144373
 31
0.0
  0
LINE
  5
24A
330
5C
100
AcDbEntity
  8
0
  6
Continuous
 62
     7
100
AcDbLine
 10
-243.9199241934943
 20
-144.8552828144373
 30
0.0
 11
-237.9499995708545
 21
-144.8552828144373
 31
0.0
  0
LINE
  5
24B
330
5C
100
AcDbEntity
  8
0
  6
Continuous
 62
     7
100
AcDbLine
 10
-236.1499995708545
 20
-144.8552828144373
 30
0.0
 11
-230.1800749482148
 21
-144.8552828144373
 31
0.0
  0
LINE
  5
24C
330
5C
100
AcDbEntity
  8
0
  6
Continuous
 62
     7
100
AcDbLine
 10
-236.1499995708545
 20
-147.6552828144373
 30
0.0
 11
-237.9499995708545
 21
-147.6552828144373
 31
0.0
  0
LINE
  5
24D
330
5C
100
AcDbEntity
  8
0
  6
Continuous
 62
     7
100
AcDbLine
 10
-243.9199241934943
 20
-147.6552828144373
 30
0.0
 11
-241.2499995708545
 21
-147.6552828144373
 31
0.0
  0
LINE
  5
24E
330
5C
100
AcDbEntity
  8
0
  6
Continuous
 62
     7
100
AcDbLine
 10
-237.9499995708545
 20
-147.6552828144373
 30
0.0
 11
-241.2499995708545
 21
-147.6552828144373
 31
0.0
  0
LINE
  5
24F
330
5C
100
AcDbEntity
  8
0
  6
Continuous
 62
     7
100
AcDbLine
 10
-232.8499995708545
 20
-147.6552828144373
 30
0.0
 11
-236.1499995708545
 21
-147.6552828144373
 31
0.0
  0
LINE
  5
250
330
5C
100
AcDbEntity
  8
0
  6
Continuous
 62
     7
100
AcDbLine
 10
-237.9499995708545
 20
-144.8552828144373
 30
0.0
 11
-236.1499995708545
 21
-144.8552828144373
 31
0.0
  0
LINE
  5
251
330
5C
100
AcDbEntity
  8
0
  6
Continuous
 62
     7
100
AcDbLine
 10
-241.2499995708545
 20
-149.1052828144372
 30
0.0
 11
-241.2499995708545
 21
-147.6552828144373
 31
0.0
  0
LINE
  5
252
330
5C
100
AcDbEntity
  8
0
  6
Continuous
 62
     2
100
AcDbLine
 10
-237.9499995708545
 20
-147.6552828144373
 30
0.0
 11
-237.9499995708545
 21
-144.8552828144373
 31
0.0
  0
LINE
  5
253
330
5C
100
AcDbEntity
  8
0
  6
Continuous
 62
     2
100
AcDbLine
 10
-236.1499995708545
 20
-147.6552828144373
 30
0.0
 11
-236.1499995708545
 21
-144.8552828144373
 31
0.0
  0
LINE
  5
254
330
5C
100
AcDbEntity
  8
0
  6
Continuous
 62
     7
100
AcDbLine
 10
-237.0499995708545
 20
-135.6677828144373
 30
0.0
 11
-240.8499995708546
 21
-132.3427828144372
 31
0.0
  0
SPLINE
  5
255
330
5C
100
AcDbEntity
  8
0
  6
Continuous
 62
     7
100
AcDbSpline
210
0.0
220
0.0
230
1.0
 70
     8
 71
     3
 72
    19
 73
    15
 74
    13
 42
0.000000001
 43
0.0000000001
 44
0.00000001
 40
0.0
 40
0.0
 40
0.0
 40
0.0
 40
0.1271084811713256
 40
0.3120845607398454
 40
0.5680078797563552
 40
0.886780397278119
 40
1.251330135957916
 40
1.639860827732845
 40
2.028391519507775
 40
2.392941258187572
 40
2.711713775709335
 40
2.967637094725845
 40
3.152613174294365
 40
3.279721655465691
 40
3.279721655465691
 40
3.279721655465691
 40
3.279721655465691
 10
-237.7499995708545
 20
-89.74834030475844
 30
0.0
 10
-237.7634978838547
 20
-89.78977392867307
 30
0.0
 10
-237.7966397587877
 20
-89.89150431651267
 30
0.0
 10
-237.9734438305377
 20
-89.9897454448709
 30
0.0
 10
-238.2060054634733
 20
-90.0789803580312
 30
0.0
 10
-238.5147581334348
 20
-90.14560483985332
 30
0.0
 10
-238.8691887541243
 20
-90.18844978868835
 30
0.0
 10
-239.2499995708546
 20
-90.20292094385943
 30
0.0
 10
-239.6308103875847
 20
-90.18844978868836
 30
0.0
 10
-239.9852410082744
 20
-90.1456048398533
 30
0.0
 10
-240.2939936782358
 20
-90.0789803580312
 30
0.0
 10
-240.5265553111714
 20
-89.98974544487088
 30
0.0
 10
-240.7033593829215
 20
-89.89150431651268
 30
0.0
 10
-240.7365012578544
 20
-89.78977392867309
 30
0.0
 10
-240.7499995708546
 20
-89.74834030475844
 30
0.0
 11
-237.7499995708545
 21
-89.74834030475844
 31
0.0
 11
-237.801111217703
 21
-89.86471970222952
 31
0.0
 11
-237.9509614651779
 21
-89.97316809602938
 31
0.0
 11
-238.1893396818529
 21
-90.06629473160368
 31
0.0
 11
-238.4999995708546
 21
-90.13775346219319
 31
0.0
 11
-238.8617711067047
 21
-90.18267412907477
 31
0.0
 11
-239.2499995708546
 21
-90.19799588730031
 31
0.0
 11
-239.6382280350044
 21
-90.18267412907477
 31
0.0
 11
-239.9999995708546
 21
-90.13775346219319
 31
0.0
 11
-240.3106594598563
 21
-90.06629473160368
 31
0.0
 11
-240.5490376765312
 21
-89.97316809602938
 31
0.0
 11
-240.6988879240061
 21
-89.86471970222952
 31
0.0
 11
-240.7499995708546
 21
-89.74834030475844
 31
0.0
  0
SPLINE
  5
256
330
5C
100
AcDbEntity
  8
0
  6
Continuous
 62
     7
100
AcDbSpline
210
0.0
220
0.0
230
1.0
 70
     8
 71
     3
 72
    13
 73
     9
 74
     7
 42
0.000000001
 43
0.0000000001
 44
0.00000001
 40
0.0
 40
0.0
 40
0.0
 40
0.0
 40
0.388530698074287
 40
0.7530804344456098
 40
1.07185295046102
 40
1.327776268775273
 40
1.512752351267736
 40
1.63986081769675
 40
1.63986081769675
 40
1.63986081769675
 40
1.63986081769675
 10
-239.2499995708545
 20
-89.29868472221658
 30
0.0
 10
-239.1203961625269
 20
-89.3015130225072
 30
0.0
 10
-238.8691887507482
 20
-89.30699504731689
 30
0.0
 10
-238.5147581278277
 20
-89.35135557803052
 30
0.0
 10
-238.2060054634181
 20
-89.41764425899117
 30
0.0
 10
-237.973443819099
 20
-89.50694469203734
 30
0.0
 10
-237.7966397780733
 20
-89.60517499613744
 30
0.0
 10
-237.7634978822892
 20
-89.70690630423887
 30
0.0
 10
-237.7499995708545
 20
-89.74834030475844
 30
0.0
 11
-239.2499995708545
 21
-89.29868472221658
 31
0.0
 11
-238.8617711067047
 21
-89.31400648044213
 31
0.0
 11
-238.4999995708546
 21
-89.3589271473237
 31
0.0
 11
-238.1893396818529
 21
-89.43038587791321
 31
0.0
 11
-237.9509614651779
 21
-89.5235125134875
 31
0.0
 11
-237.801111217703
 21
-89.63196090728736
 31
0.0
 11
-237.7499995708545
 21
-89.74834030475844
 31
0.0
  0
SPLINE
  5
257
330
5C
100
AcDbEntity
  8
0
  6
Continuous
 62
     7
100
AcDbSpline
210
0.0
220
0.0
230
1.0
 70
     8
 71
     3
 72
    13
 73
     9
 74
     7
 42
0.000000001
 43
0.0000000001
 44
0.00000001
 40
0.0
 40
0.0
 40
0.0
 40
0.0
 40
0.1271084664290258
 40
0.3120845489214655
 40
0.5680078672357185
 40
0.8867803832511291
 40
1.251330119622452
 40
1.639860817696853
 40
1.639860817696853
 40
1.639860817696853
 40
1.639860817696853
 10
-240.7499995708546
 20
-89.74834030475844
 30
0.0
 10
-240.7365012594199
 20
-89.70690630423886
 30
0.0
 10
-240.7033593636358
 20
-89.60517499613744
 30
0.0
 10
-240.5265553226102
 20
-89.50694469203735
 30
0.0
 10
-240.2939936782909
 20
-89.41764425899116
 30
0.0
 10
-239.9852410138814
 20
-89.35135557803054
 30
0.0
 10
-239.6308103909609
 20
-89.30699504731686
 30
0.0
 10
-239.379602979182
 20
-89.30151302250724
 30
0.0
 10
-239.2499995708545
 20
-89.29868472221658
 30
0.0
 11
-240.7499995708546
 21
-89.74834030475844
 31
0.0
 11
-240.6988879240061
 21
-89.63196090728736
 31
0.0
 11
-240.5490376765312
 21
-89.5235125134875
 31
0.0
 11
-240.3106594598563
 21
-89.43038587791321
 31
0.0
 11
-239.9999995708546
 21
-89.3589271473237
 31
0.0
 11
-239.6382280350044
 21
-89.31400648044213
 31
0.0
 11
-239.2499995708545
 21
-89.29868472221658
 31
0.0
  0
SPLINE
  5
258
330
5C
100
AcDbEntity
  8
0
  6
Continuous
 62
     7
100
AcDbSpline
210
0.0
220
0.0
230
1.0
 70
     8
 71
     3
 72
    13
 73
     9
 74
     7
 42
0.000000001
 43
0.0000000001
 44
0.00000001
 40
0.0
 40
0.0
 40
0.0
 40
0.0
 40
0.388530698074287
 40
0.7530804344456098
 40
1.07185295046102
 40
1.327776268775273
 40
1.512752351267736
 40
1.63986081769675
 40
1.63986081769675
 40
1.63986081769675
 40
1.63986081769675
 10
-234.7499995708545
 20
-89.29868472221658
 30
0.0
 10
-234.620396162527
 20
-89.3015130225072
 30
0.0
 10
-234.3691887507482
 20
-89.30699504731689
 30
0.0
 10
-234.0147581278277
 20
-89.35135557803052
 30
0.0
 10
-233.706005463418
 20
-89.41764425899117
 30
0.0
 10
-233.473443819099
 20
-89.50694469203734
 30
0.0
 10
-233.2966397780733
 20
-89.60517499613744
 30
0.0
 10
-233.2634978822892
 20
-89.70690630423887
 30
0.0
 10
-233.2499995708545
 20
-89.74834030475844
 30
0.0
 11
-234.7499995708545
 21
-89.29868472221658
 31
0.0
 11
-234.3617711067047
 21
-89.31400648044213
 31
0.0
 11
-233.9999995708546
 21
-89.3589271473237
 31
0.0
 11
-233.6893396818529
 21
-89.43038587791321
 31
0.0
 11
-233.4509614651779
 21
-89.5235125134875
 31
0.0
 11
-233.301111217703
 21
-89.63196090728736
 31
0.0
 11
-233.2499995708545
 21
-89.74834030475844
 31
0.0
  0
SPLINE
  5
259
330
5C
100
AcDbEntity
  8
0
  6
Continuous
 62
     7
100
AcDbSpline
210
0.0
220
0.0
230
1.0
 70
     8
 71
     3
 72
    13
 73
     9
 74
     7
 42
0.000000001
 43
0.0000000001
 44
0.00000001
 40
0.0
 40
0.0
 40
0.0
 40
0.0
 40
0.1271084664290029
 40
0.3120845489213966
 40
0.5680078672356496
 40
0.8867803832510601
 40
1.251330119622383
 40
1.639860817696784
 40
1.639860817696784
 40
1.639860817696784
 40
1.639860817696784
 10
-236.2499995708545
 20
-89.74834030475844
 30
0.0
 10
-236.2365012594198
 20
-89.70690630423887
 30
0.0
 10
-236.2033593636357
 20
-89.60517499613745
 30
0.0
 10
-236.0265553226102
 20
-89.50694469203731
 30
0.0
 10
-235.793993678291
 20
-89.41764425899119
 30
0.0
 10
-235.4852410138813
 20
-89.35135557803054
 30
0.0
 10
-235.1308103909609
 20
-89.30699504731686
 30
0.0
 10
-234.8796029791821
 20
-89.30151302250724
 30
0.0
 10
-234.7499995708545
 20
-89.29868472221658
 30
0.0
 11
-236.2499995708545
 21
-89.74834030475844
 31
0.0
 11
-236.198887924006
 21
-89.63196090728736
 31
0.0
 11
-236.0490376765312
 21
-89.5235125134875
 31
0.0
 11
-235.8106594598563
 21
-89.43038587791321
 31
0.0
 11
-235.4999995708546
 21
-89.3589271473237
 31
0.0
 11
-235.1382280350044
 21
-89.31400648044213
 31
0.0
 11
-234.7499995708545
 21
-89.29868472221658
 31
0.0
  0
SPLINE
  5
25A
330
5C
100
AcDbEntity
  8
0
  6
Continuous
 62
     7
100
AcDbSpline
210
0.0
220
0.0
230
1.0
 70
     8
 71
     3
 72
    19
 73
    15
 74
    13
 42
0.000000001
 43
0.0000000001
 44
0.00000001
 40
0.0
 40
0.0
 40
0.0
 40
0.0
 40
0.1271084811713256
 40
0.3120845607398454
 40
0.5680078797563552
 40
0.886780397278119
 40
1.251330135957916
 40
1.639860827732845
 40
2.028391519507775
 40
2.392941258187572
 40
2.711713775709335
 40
2.967637094725845
 40
3.152613174294319
 40
3.279721655465622
 40
3.279721655465622
 40
3.279721655465622
 40
3.279721655465622
 10
-233.2499995708545
 20
-89.74834030475844
 30
0.0
 10
-233.2634978838547
 20
-89.78977392867307
 30
0.0
 10
-233.2966397587876
 20
-89.89150431651267
 30
0.0
 10
-233.4734438305377
 20
-89.9897454448709
 30
0.0
 10
-233.7060054634732
 20
-90.0789803580312
 30
0.0
 10
-234.0147581334348
 20
-90.14560483985332
 30
0.0
 10
-234.3691887541243
 20
-90.18844978868835
 30
0.0
 10
-234.7499995708546
 20
-90.20292094385943
 30
0.0
 10
-235.1308103875847
 20
-90.18844978868836
 30
0.0
 10
-235.4852410082743
 20
-90.1456048398533
 30
0.0
 10
-235.7939936782359
 20
-90.0789803580312
 30
0.0
 10
-236.0265553111713
 20
-89.98974544487088
 30
0.0
 10
-236.2033593829215
 20
-89.8915043165127
 30
0.0
 10
-236.2365012578543
 20
-89.78977392867306
 30
0.0
 10
-236.2499995708545
 20
-89.74834030475844
 30
0.0
 11
-233.2499995708545
 21
-89.74834030475844
 31
0.0
 11
-233.301111217703
 21
-89.86471970222952
 31
0.0
 11
-233.4509614651779
 21
-89.97316809602938
 31
0.0
 11
-233.6893396818529
 21
-90.06629473160368
 31
0.0
 11
-233.9999995708546
 21
-90.13775346219319
 31
0.0
 11
-234.3617711067047
 21
-90.18267412907477
 31
0.0
 11
-234.7499995708546
 21
-90.19799588730031
 31
0.0
 11
-235.1382280350044
 21
-90.18267412907477
 31
0.0
 11
-235.4999995708546
 21
-90.13775346219319
 31
0.0
 11
-235.8106594598563
 21
-90.06629473160368
 31
0.0
 11
-236.0490376765312
 21
-89.97316809602938
 31
0.0
 11
-236.198887924006
 21
-89.86471970222952
 31
0.0
 11
-236.2499995708545
 21
-89.74834030475844
 31
0.0
  0
ENDBLK
  5
5E
330
5C
100
AcDbEntity
  8
0
100
AcDbBlockEnd
  0
BLOCK
  5
61
330
5F
100
AcDbEntity
  8
0
100
AcDbBlockBegin
  2
SA_Links1
 70
     0
 10
-237.0499999523192
 20
-117.0000007467269
 30
0.0
  3
SA_Links1
  1

  0
INSERT
  5
60
330
5F
100
AcDbEntity
  8
0
100
AcDbBlockReference
  2
UK_10_3-HESI_1000V-select__4
 10
-245.9499995708546
 20
-149.1052828144373
 30
0.0
  0
MTEXT
  5
25B
330
5F
100
AcDbEntity
  8
1
 62
     6
100
AcDbMText
 10
-237.0499999523214
 20
-154.105281829429
 30
0.0
 40
5.0
 41
0.0
 71
     2
 72
     1
  1
 
  7
CONVERTER_11
 73
     1
 44
1.32052821128451
  0
ENDBLK
  5
62
330
5F
100
AcDbEntity
  8
0
100
AcDbBlockEnd
  0
BLOCK
  5
64
330
63
100
AcDbEntity
  8
0
100
AcDbBlockBegin
  2
UK_10_3-HESI_1000V-select__5
 70
     0
 10
-402.0500002384048
 20
-149.1052828144373
 30
0.0
  3
UK_10_3-HESI_1000V-select__5
  1

  0
LINE
  5
25C
330
63
100
AcDbEntity
  8
0
  6
Continuous
 62
     7
100
AcDbLine
 10
-384.7500002384048
 20
-85.74827580134496
 30
0.0
 11
-384.7500002384048
 21
-84.89472241075174
 31
0.0
  0
LINE
  5
25D
330
63
100
AcDbEntity
  8
0
  6
Continuous
 62
     7
100
AcDbLine
 10
-401.6500002384048
 20
-85.74827580134496
 30
0.0
 11
-401.6500002384048
 21
-84.89472241075174
 31
0.0
  0
LINE
  5
25E
330
63
100
AcDbEntity
  8
0
  6
Continuous
 62
     7
100
AcDbLine
 10
-384.7500002384048
 20
-85.74827580134496
 30
0.0
 11
-384.7500002384048
 21
-88.23255554170997
 31
0.0
  0
LINE
  5
25F
330
63
100
AcDbEntity
  8
0
  6
Continuous
 62
     2
100
AcDbLine
 10
-401.6500002384048
 20
-85.74827580134496
 30
0.0
 11
-384.7500002384048
 21
-85.74827580134496
 31
0.0
  0
LINE
  5
260
330
63
100
AcDbEntity
  8
0
  6
Continuous
 62
     7
100
AcDbLine
 10
-402.0500002384048
 20
-91.50528281443727
 30
0.0
 11
-384.2500002384048
 21
-91.50528281443727
 31
0.0
  0
LINE
  5
261
330
63
100
AcDbEntity
  8
0
  6
Continuous
 62
     7
100
AcDbLine
 10
-401.6500002384048
 20
-88.23255554170997
 30
0.0
 11
-384.7500002384048
 21
-88.23255554170997
 31
0.0
  0
LINE
  5
262
330
63
100
AcDbEntity
  8
0
  6
Continuous
 62
     7
100
AcDbLine
 10
-384.2500002384048
 20
-88.23255554170998
 30
0.0
 11
-384.7500002384048
 21
-88.23255554170997
 31
0.0
  0
LINE
  5
263
330
63
100
AcDbEntity
  8
0
  6
Continuous
 62
     7
100
AcDbLine
 10
-384.2500002384048
 20
-91.50528281443727
 30
0.0
 11
-384.2500002384048
 21
-88.23255554170998
 31
0.0
  0
LINE
  5
264
330
63
100
AcDbEntity
  8
0
  6
Continuous
 62
     7
100
AcDbLine
 10
-384.2500002384048
 20
-106.3052828144372
 30
0.0
 11
-384.2500002384048
 21
-91.50528281443727
 31
0.0
  0
LINE
  5
265
330
63
100
AcDbEntity
  8
0
  6
Continuous
 62
     7
100
AcDbLine
 10
-402.0500002384048
 20
-106.3052828144373
 30
0.0
 11
-384.2500002384048
 21
-106.3052828144372
 31
0.0
  0
LINE
  5
266
330
63
100
AcDbEntity
  8
0
  6
Continuous
 62
     7
100
AcDbLine
 10
-384.7500002384048
 20
-84.89472241075174
 30
0.0
 11
-401.6500002384048
 21
-84.89472241075174
 31
0.0
  0
LINE
  5
267
330
63
100
AcDbEntity
  8
0
  6
Continuous
 62
     7
100
AcDbLine
 10
-396.9500002384048
 20
-132.3427828144373
 30
0.0
 11
-396.9500002384048
 21
-127.4052828144372
 31
0.0
  0
LINE
  5
268
330
63
100
AcDbEntity
  8
0
  6
Continuous
 62
     7
100
AcDbLine
 10
-396.9500002384048
 20
-127.4052828144372
 30
0.0
 11
-389.3500002384048
 21
-127.4052828144372
 31
0.0
  0
LINE
  5
269
330
63
100
AcDbEntity
  8
0
  6
Continuous
 62
     7
100
AcDbLine
 10
-389.3500002384048
 20
-127.4052828144372
 30
0.0
 11
-389.3500002384048
 21
-132.3427828144372
 31
0.0
  0
LINE
  5
26A
330
63
100
AcDbEntity
  8
0
  6
Continuous
 62
     7
100
AcDbLine
 10
-393.1500002384048
 20
-135.6677828144373
 30
0.0
 11
-396.9500002384048
 21
-132.3427828144373
 31
0.0
  0
LINE
  5
26B
330
63
100
AcDbEntity
  8
0
  6
Continuous
 62
     2
100
AcDbLine
 10
-386.8500002384048
 20
-144.7458091161003
 30
0.0
 11
-399.4500002384048
 21
-144.7458091161003
 31
0.0
  0
LINE
  5
26C
330
63
100
AcDbEntity
  8
0
  6
Continuous
 62
     7
100
AcDbLine
 10
-386.8500002384048
 20
-144.1752828144373
 30
0.0
 11
-399.4500002384048
 21
-144.1752828144373
 31
0.0
  0
LINE
  5
26D
330
63
100
AcDbEntity
  8
0
  6
Continuous
 62
     2
100
AcDbLine
 10
-386.8500002384048
 20
-145.074324891071
 30
0.0
 11
-399.4500002384048
 21
-145.074324891071
 31
0.0
  0
LINE
  5
26E
330
63
100
AcDbEntity
  8
0
  6
Continuous
 62
     7
100
AcDbLine
 10
-399.4500002384048
 20
-147.3052828144373
 30
0.0
 11
-402.0500002384048
 21
-147.3052828144373
 31
0.0
  0
LINE
  5
26F
330
63
100
AcDbEntity
  8
0
  6
Continuous
 62
     7
100
AcDbLine
 10
-402.0500002384048
 20
-147.3052828144373
 30
0.0
 11
-402.0500002384048
 21
-143.3052828144372
 31
0.0
  0
LINE
  5
270
330
63
100
AcDbEntity
  8
0
  6
Continuous
 62
     7
100
AcDbLine
 10
-399.4500002384048
 20
-147.3052828144373
 30
0.0
 11
-399.4500002384048
 21
-143.3052828144372
 31
0.0
  0
LINE
  5
271
330
63
100
AcDbEntity
  8
0
  6
Continuous
 62
     7
100
AcDbLine
 10
-384.2500002384048
 20
-147.3052828144372
 30
0.0
 11
-384.2500002384048
 21
-143.3052828144372
 31
0.0
  0
LINE
  5
272
330
63
100
AcDbEntity
  8
0
  6
Continuous
 62
     7
100
AcDbLine
 10
-384.2500002384048
 20
-143.3052828144372
 30
0.0
 11
-384.2500002384048
 21
-106.3052828144372
 31
0.0
  0
LINE
  5
273
330
63
100
AcDbEntity
  8
0
  6
Continuous
 62
     7
100
AcDbLine
 10
-386.8500002384048
 20
-147.3052828144372
 30
0.0
 11
-386.8500002384048
 21
-143.3052828144372
 31
0.0
  0
LINE
  5
274
330
63
100
AcDbEntity
  8
0
  6
Continuous
 62
     7
100
AcDbLine
 10
-397.3500002384048
 20
-149.1052828144373
 30
0.0
 11
-397.3500002384048
 21
-149.0724401019626
 31
0.0
  0
LINE
  5
275
330
63
100
AcDbEntity
  8
0
  6
Continuous
 62
     7
100
AcDbLine
 10
-400.0500002384048
 20
-149.0724401019626
 30
0.0
 11
-400.0500002384048
 21
-149.0138614582
 31
0.0
  0
LINE
  5
276
330
63
100
AcDbEntity
  8
0
  6
Continuous
 62
     7
100
AcDbLine
 10
-400.0500002384048
 20
-147.3052828144373
 30
0.0
 11
-400.0500002384048
 21
-149.0138614582
 31
0.0
  0
LINE
  5
277
330
63
100
AcDbEntity
  8
0
  6
Continuous
 62
     7
100
AcDbLine
 10
-386.2500002384048
 20
-149.0724401019626
 30
0.0
 11
-386.2500002384048
 21
-149.0138614582
 31
0.0
  0
LINE
  5
278
330
63
100
AcDbEntity
  8
0
  6
Continuous
 62
     7
100
AcDbLine
 10
-388.9500002384048
 20
-149.0724401019626
 30
0.0
 11
-388.9500002384048
 21
-149.1052828144372
 31
0.0
  0
LINE
  5
279
330
63
100
AcDbEntity
  8
0
  6
Continuous
 62
     7
100
AcDbLine
 10
-386.8500002384048
 20
-147.3052828144372
 30
0.0
 11
-384.2500002384048
 21
-147.3052828144372
 31
0.0
  0
LINE
  5
27A
330
63
100
AcDbEntity
  8
0
  6
Continuous
 62
     7
100
AcDbLine
 10
-386.2500002384048
 20
-147.3052828144372
 30
0.0
 11
-386.2500002384048
 21
-149.0138614582
 31
0.0
  0
LINE
  5
27B
330
63
100
AcDbEntity
  8
0
  6
Continuous
 62
     7
100
AcDbLine
 10
-384.2500002384048
 20
-149.1052828144372
 30
0.0
 11
-388.9500002384048
 21
-149.1052828144372
 31
0.0
  0
LINE
  5
27C
330
63
100
AcDbEntity
  8
0
  6
Continuous
 62
     7
100
AcDbLine
 10
-384.2500002384048
 20
-147.3052828144372
 30
0.0
 11
-384.2500002384048
 21
-149.1052828144372
 31
0.0
  0
LINE
  5
27D
330
63
100
AcDbEntity
  8
0
  6
Continuous
 62
     2
100
AcDbLine
 10
-386.2500002384048
 20
-149.0138614582
 30
0.0
 11
-400.0500002384048
 21
-149.0138614582
 31
0.0
  0
LINE
  5
27E
330
63
100
AcDbEntity
  8
0
  6
Continuous
 62
     7
100
AcDbLine
 10
-402.0500002384048
 20
-147.3052828144373
 30
0.0
 11
-402.0500002384048
 21
-149.1052828144373
 31
0.0
  0
LINE
  5
27F
330
63
100
AcDbEntity
  8
0
  6
Continuous
 62
     7
100
AcDbLine
 10
-397.3500002384048
 20
-149.1052828144373
 30
0.0
 11
-402.0500002384048
 21
-149.1052828144373
 31
0.0
  0
LINE
  5
280
330
63
100
AcDbEntity
  8
0
  6
Continuous
 62
     7
100
AcDbLine
 10
-386.2500002384048
 20
-149.0724401019626
 30
0.0
 11
-400.0500002384048
 21
-149.0724401019626
 31
0.0
  0
LINE
  5
281
330
63
100
AcDbEntity
  8
0
  6
Continuous
 62
     7
100
AcDbLine
 10
-399.4500002384048
 20
-143.3052828144372
 30
0.0
 11
-402.0500002384048
 21
-143.3052828144372
 31
0.0
  0
LINE
  5
282
330
63
100
AcDbEntity
  8
0
  6
Continuous
 62
     7
100
AcDbLine
 10
-386.8500002384048
 20
-143.3052828144372
 30
0.0
 11
-384.2500002384048
 21
-143.3052828144372
 31
0.0
  0
LINE
  5
283
330
63
100
AcDbEntity
  8
0
  6
Continuous
 62
     7
100
AcDbLine
 10
-386.8500002384048
 20
-143.3052828144372
 30
0.0
 11
-399.4500002384048
 21
-143.3052828144372
 31
0.0
  0
LINE
  5
284
330
63
100
AcDbEntity
  8
0
  6
Continuous
 62
     7
100
AcDbLine
 10
-401.6500002384048
 20
-88.23255554170997
 30
0.0
 11
-402.0500002384048
 21
-88.23255554170998
 31
0.0
  0
LINE
  5
285
330
63
100
AcDbEntity
  8
0
  6
Continuous
 62
     7
100
AcDbLine
 10
-402.0500002384048
 20
-91.50528281443727
 30
0.0
 11
-402.0500002384048
 21
-88.23255554170998
 31
0.0
  0
LINE
  5
286
330
63
100
AcDbEntity
  8
0
  6
Continuous
 62
     7
100
AcDbLine
 10
-401.6500002384048
 20
-85.74827580134496
 30
0.0
 11
-401.6500002384048
 21
-88.23255554170997
 31
0.0
  0
LINE
  5
287
330
63
100
AcDbEntity
  8
0
  6
Continuous
 62
     7
100
AcDbLine
 10
-402.0500002384048
 20
-143.3052828144372
 30
0.0
 11
-402.0500002384048
 21
-106.3052828144373
 31
0.0
  0
LINE
  5
288
330
63
100
AcDbEntity
  8
0
  6
Continuous
 62
     7
100
AcDbLine
 10
-402.0500002384048
 20
-106.3052828144373
 30
0.0
 11
-402.0500002384048
 21
-91.50528281443727
 31
0.0
  0
LINE
  5
289
330
63
100
AcDbEntity
  8
0
  6
Continuous
 62
     7
100
AcDbLine
 10
-389.3500002384048
 20
-132.3427828144372
 30
0.0
 11
-393.1500002384048
 21
-135.6677828144373
 31
0.0
  0
ENDBLK
  5
65
330
63
100
AcDbEntity
  8
0
100
AcDbBlockEnd
  0
BLOCK
  5
68
330
66
100
AcDbEntity
  8
0
100
AcDbBlockBegin
  2
SA_Rechts1
 70
     0
 10
-393.1499998569402
 20
-117.0000007467269
 30
0.0
  3
SA_Rechts1
  1

  0
INSERT
  5
67
330
66
100
AcDbEntity
  8
0
100
AcDbBlockReference
  2
UK_10_3-HESI_1000V-select__5
 10
-402.0500002384048
 20
-149.1052828144373
 30
0.0
  0
MTEXT
  5
28A
330
66
100
AcDbEntity
  8
1
 62
     6
100
AcDbMText
 10
-393.1499998569389
 20
-154.1052818294293
 30
0.0
 40
5.0
 41
0.0
 71
     2
 72
     1
  1
 
  7
CONVERTER_11
 73
     1
 44
1.32052821128451
  0
ENDBLK
  5
69
330
66
100
AcDbEntity
  8
0
100
AcDbBlockEnd
  0
BLOCK
  5
6B
330
6A
100
AcDbEntity
  8
0
100
AcDbBlockBegin
  2
UK_10_3-HESI_1000V-select__6
 70
     0
 10
-344.2499996356315
 20
-149.1052828144374
 30
0.0
  3
UK_10_3-HESI_1000V-select__6
  1

  0
LINE
  5
28B
330
6A
100
AcDbEntity
  8
0
  6
Continuous
 62
     7
100
AcDbLine
 10
-299.1499996356315
 20
-88.98392581443738
 30
0.0
 11
-299.1499996356315
 21
-88.31798663632827
 31
0.0
  0
LINE
  5
28C
330
6A
100
AcDbEntity
  8
0
  6
Continuous
 62
     7
100
AcDbLine
 10
-300.9468635641176
 20
-89.52257241211198
 30
0.0
 11
-299.1499996356315
 21
-88.98392581443738
 31
0.0
  0
LINE
  5
28D
330
6A
100
AcDbEntity
  8
0
  6
Continuous
 62
     7
100
AcDbLine
 10
-317.8793303547779
 20
-94.0052828144374
 30
0.0
 11
-302.2582328747526
 21
-89.28857611008586
 31
0.0
  0
LINE
  5
28E
330
6A
100
AcDbEntity
  8
0
  6
Continuous
 62
     7
100
AcDbLine
 10
-299.1499996356315
 20
-89.99354600654291
 30
0.0
 11
-299.1499996356315
 21
-88.98392581443738
 31
0.0
  0
LINE
  5
28F
330
6A
100
AcDbEntity
  8
0
  6
Continuous
 62
     7
100
AcDbLine
 10
-344.2499996356315
 20
-147.6552828144374
 30
0.0
 11
-344.2499996356315
 21
-144.8552828144374
 31
0.0
  0
LINE
  5
290
330
6A
100
AcDbEntity
  8
0
  6
Continuous
 62
     7
100
AcDbLine
 10
-344.2499996356315
 20
-147.6552828144374
 30
0.0
 11
-338.8499996356314
 21
-147.6552828144374
 31
0.0
  0
LINE
  5
291
330
6A
100
AcDbEntity
  8
0
  6
Continuous
 62
     7
100
AcDbLine
 10
-344.2499996356315
 20
-144.8552828144374
 30
0.0
 11
-338.8499996356314
 21
-144.8552828144374
 31
0.0
  0
LINE
  5
292
330
6A
100
AcDbEntity
  8
0
  6
Continuous
 62
     7
100
AcDbLine
 10
-280.7499996356315
 20
-143.3052828144374
 30
0.0
 11
-316.0499996356314
 21
-143.3052828144374
 31
0.0
  0
LINE
  5
293
330
6A
100
AcDbEntity
  8
0
  6
Continuous
 62
     7
100
AcDbLine
 10
-280.7499996356315
 20
-143.3052828144374
 30
0.0
 11
-280.7499996356315
 21
-144.4052828144374
 31
0.0
  0
LINE
  5
294
330
6A
100
AcDbEntity
  8
0
  6
Continuous
 62
     7
100
AcDbLine
 10
-280.7499996356315
 20
-144.4052828144374
 30
0.0
 11
-283.4499996356315
 21
-147.3052828144374
 31
0.0
  0
LINE
  5
295
330
6A
100
AcDbEntity
  8
0
  6
Continuous
 62
     7
100
AcDbLine
 10
-316.0499996356314
 20
-144.1752828144374
 30
0.0
 11
-314.5397829547588
 21
-144.7458091161004
 31
0.0
  0
LINE
  5
296
330
6A
100
AcDbEntity
  8
0
  6
Continuous
 62
     7
100
AcDbLine
 10
-275.9499996356315
 20
-106.3052828144374
 30
0.0
 11
-275.9499996356315
 21
-91.5052828144374
 31
0.0
  0
LINE
  5
297
330
6A
100
AcDbEntity
  8
0
  6
Continuous
 62
     7
100
AcDbLine
 10
-314.4690417122652
 20
-145.0743248910711
 30
0.0
 11
-318.4085782793942
 21
-149.0138614582001
 31
0.0
  0
LINE
  5
298
330
6A
100
AcDbEntity
  8
0
  6
Continuous
 62
     7
100
AcDbLine
 10
-257.9499996356315
 20
-106.3052828144374
 30
0.0
 11
-275.9499996356315
 21
-106.3052828144374
 31
0.0
  0
LINE
  5
299
330
6A
100
AcDbEntity
  8
0
  6
Continuous
 62
     7
100
AcDbLine
 10
-338.8499996356314
 20
-106.3052828144374
 30
0.0
 11
-320.8499996356314
 21
-106.3052828144374
 31
0.0
  0
LINE
  5
29A
330
6A
100
AcDbEntity
  8
0
  6
Continuous
 62
     7
100
AcDbLine
 10
-257.9499996356315
 20
-143.3052828144374
 30
0.0
 11
-257.9499996356315
 21
-106.3052828144374
 31
0.0
  0
LINE
  5
29B
330
6A
100
AcDbEntity
  8
0
  6
Continuous
 62
     7
100
AcDbLine
 10
-275.9499996356315
 20
-91.5052828144374
 30
0.0
 11
-279.8772723629042
 21
-88.23255554171011
 31
0.0
  0
LINE
  5
29C
330
6A
100
AcDbEntity
  8
0
  6
Continuous
 62
     7
100
AcDbLine
 10
-279.8772723629042
 20
-88.23255554171011
 30
0.0
 11
-288.9499996356315
 21
-97.30528281443738
 31
0.0
  0
LINE
  5
29D
330
6A
100
AcDbEntity
  8
0
  6
Continuous
 62
     7
100
AcDbLine
 10
-277.3929926225392
 20
-85.74827580134509
 30
0.0
 11
-279.8772723629042
 21
-88.23255554171011
 31
0.0
  0
LINE
  5
29E
330
6A
100
AcDbEntity
  8
0
  6
Continuous
 62
     7
100
AcDbLine
 10
-292.2779397309196
 20
-86.71764360163134
 30
0.0
 11
-292.2554777746736
 21
-86.64612385865497
 31
0.0
  0
LINE
  5
29F
330
6A
100
AcDbEntity
  8
0
  6
Continuous
 62
     7
100
AcDbLine
 10
-291.9660064605346
 20
-87.46262781628899
 30
0.0
 11
-292.0901144193559
 21
-86.90576852420361
 31
0.0
  0
LINE
  5
2A0
330
6A
100
AcDbEntity
  8
0
  6
Continuous
 62
     7
100
AcDbLine
 10
-297.5427464336998
 20
-89.21779056421357
 30
0.0
 11
-292.3452657440843
 21
-88.05942124440354
 31
0.0
  0
LINE
  5
2A1
330
6A
100
AcDbEntity
  8
0
  6
Continuous
 62
     7
100
AcDbLine
 10
-298.263647820636
 20
-88.28167198857797
 30
0.0
 11
-298.1395398618147
 21
-88.83853128066285
 31
0.0
  0
LINE
  5
2A2
330
6A
100
AcDbEntity
  8
0
  6
Continuous
 62
     7
100
AcDbLine
 10
-298.2725922095269
 20
-87.9236792720491
 30
0.0
 11
-298.1734858812878
 21
-88.03159168377489
 31
0.0
  0
LINE
  5
2A3
330
6A
100
AcDbEntity
  8
0
  6
Continuous
 62
     7
100
AcDbLine
 10
-271.9499996356315
 20
-147.3052828144374
 30
0.0
 11
-257.9499996356315
 21
-143.3052828144374
 31
0.0
  0
LINE
  5
2A4
330
6A
100
AcDbEntity
  8
0
  6
Continuous
 62
     7
100
AcDbLine
 10
-338.8499996356314
 20
-147.6552828144374
 30
0.0
 11
-338.8499996356314
 21
-149.1052828144374
 31
0.0
  0
LINE
  5
2A5
330
6A
100
AcDbEntity
  8
0
  6
Continuous
 62
     7
100
AcDbLine
 10
-338.8499996356314
 20
-144.8552828144374
 30
0.0
 11
-338.8499996356314
 21
-147.6552828144374
 31
0.0
  0
LINE
  5
2A6
330
6A
100
AcDbEntity
  8
0
  6
Continuous
 62
     7
100
AcDbLine
 10
-338.8499996356314
 20
-106.3052828144374
 30
0.0
 11
-338.8499996356314
 21
-144.8552828144374
 31
0.0
  0
LINE
  5
2A7
330
6A
100
AcDbEntity
  8
0
  6
Continuous
 62
     7
100
AcDbLine
 10
-319.5499996356314
 20
-149.1052828144374
 30
0.0
 11
-338.8499996356314
 21
-149.1052828144374
 31
0.0
  0
LINE
  5
2A8
330
6A
100
AcDbEntity
  8
0
  6
Continuous
 62
     7
100
AcDbLine
 10
-320.8499996356314
 20
-94.0052828144374
 30
0.0
 11
-317.8793303547779
 21
-94.0052828144374
 31
0.0
  0
LINE
  5
2A9
330
6A
100
AcDbEntity
  8
0
  6
Continuous
 62
     7
100
AcDbLine
 10
-316.0499996356314
 20
-143.3052828144374
 30
0.0
 11
-316.0499996356314
 21
-144.1752828144374
 31
0.0
  0
LINE
  5
2AA
330
6A
100
AcDbEntity
  8
0
  6
Continuous
 62
     7
100
AcDbLine
 10
-316.0499996356314
 20
-144.1752828144374
 30
0.0
 11
-316.0499996356314
 21
-145.6052828144374
 31
0.0
  0
LINE
  5
2AB
330
6A
100
AcDbEntity
  8
0
  6
Continuous
 62
     7
100
AcDbLine
 10
-320.8499996356314
 20
-106.3052828144374
 30
0.0
 11
-320.8499996356314
 21
-94.0052828144374
 31
0.0
  0
LINE
  5
2AC
330
6A
100
AcDbEntity
  8
0
  6
Continuous
 62
     7
100
AcDbLine
 10
-318.7499996356315
 20
-148.8724401019628
 30
0.0
 11
-318.7499996356315
 21
-148.3052828144373
 31
0.0
  0
LINE
  5
2AD
330
6A
100
AcDbEntity
  8
0
  6
Continuous
 62
     7
100
AcDbLine
 10
-283.4499996356315
 20
-147.3052828144374
 30
0.0
 11
-271.9499996356315
 21
-147.3052828144374
 31
0.0
  0
LINE
  5
2AE
330
6A
100
AcDbEntity
  8
0
  6
Continuous
 62
     7
100
AcDbLine
 10
-318.7499996356315
 20
-148.3052828144373
 30
0.0
 11
-319.5499996356314
 21
-149.1052828144374
 31
0.0
  0
LINE
  5
2AF
330
6A
100
AcDbEntity
  8
0
  6
Continuous
 62
     7
100
AcDbLine
 10
-316.0499996356314
 20
-145.6052828144374
 30
0.0
 11
-318.7499996356315
 21
-148.3052828144373
 31
0.0
  0
ARC
  5
2B0
330
6A
100
AcDbEntity
  8
0
  6
Continuous
 62
     7
100
AcDbCircle
 10
-305.1138399762712
 20
-109.0836640887172
 30
0.0
 40
19.99999999999998
100
AcDbArc
 50
72.65095620786005
 51
81.79123448225008
  0
ARC
  5
2B1
330
6A
100
AcDbEntity
  8
0
  6
Continuous
 62
     7
100
AcDbCircle
 10
-306.8499996356314
 20
-103.0052828144374
 30
0.0
 40
12.00000000000004
100
AcDbArc
 50
111.571718603573
 51
117.1738432851239
  0
ARC
  5
2B2
330
6A
100
AcDbEntity
  8
0
  6
Continuous
 62
     7
100
AcDbCircle
 10
-274.4954297445479
 20
-184.841593869879
 30
0.0
 40
100.0
100
AcDbArc
 50
111.1265528203899
 51
111.5717186035728
  0
ARC
  5
2B3
330
6A
100
AcDbEntity
  8
0
  6
Continuous
 62
     7
100
AcDbCircle
 10
-310.2499996356315
 20
-92.30916316634874
 30
0.0
 40
0.8000000000000453
100
AcDbArc
 50
63.43506267573461
 51
111.1265528203839
  0
ARC
  5
2B4
330
6A
100
AcDbEntity
  8
0
  6
Continuous
 62
     7
100
AcDbCircle
 10
-297.6515135059825
 20
-88.72976420838047
 30
0.0
 40
0.4999999999997131
100
AcDbArc
 50
192.564242599991
 51
282.5642426000061
  0
ARC
  5
2B5
330
6A
100
AcDbEntity
  8
0
  6
Continuous
 62
     7
100
AcDbCircle
 10
-314.6104630685024
 20
-144.9329035348338
 30
0.0
 40
0.1999999999998891
100
AcDbArc
 50
314.9999999999769
 51
69.30454926597058
  0
ARC
  5
2B6
330
6A
100
AcDbEntity
  8
0
  6
Continuous
 62
     7
100
AcDbCircle
 10
-298.2839637870057
 20
-88.1330541514572
 30
0.0
 40
0.1499999999999666
100
AcDbArc
 50
277.7840507528284
 51
42.56424259993207
  0
ARC
  5
2B7
330
6A
100
AcDbEntity
  8
0
  6
Continuous
 62
     7
100
AcDbCircle
 10
-292.1348317035175
 20
-86.76258904069739
 30
0.0
 40
0.1499999999992496
100
AcDbArc
 50
162.5642426004048
 51
287.3444344473571
  0
ARC
  5
2B8
330
6A
100
AcDbEntity
  8
0
  6
Continuous
 62
     7
100
AcDbCircle
 10
-277.7465460131325
 20
-85.39472241075187
 30
0.0
 40
0.4999999999999639
100
AcDbArc
 50
315.0000000000047
 51
91.87244625315539
  0
ARC
  5
2B9
330
6A
100
AcDbEntity
  8
0
  6
Continuous
 62
     7
100
AcDbCircle
 10
-274.4954297445479
 20
-184.841593869879
 30
0.0
 40
100.0
100
AcDbArc
 50
91.87244625315778
 51
100.078031230645
  0
ARC
  5
2BA
330
6A
100
AcDbEntity
  8
0
  6
Continuous
 62
     7
100
AcDbCircle
 10
-291.8738563682679
 20
-86.76597836283368
 30
0.0
 40
0.3999999999986767
100
AcDbArc
 50
107.532118455484
 51
162.564242600052
  0
ARC
  5
2BB
330
6A
100
AcDbEntity
  8
0
  6
Continuous
 62
     7
100
AcDbCircle
 10
-292.4540328163668
 20
-87.5713948885713
 30
0.0
 40
0.4999999999997933
100
AcDbArc
 50
282.5642426000022
 51
12.56424259998318
  0
ARC
  5
2BC
330
6A
100
AcDbEntity
  8
0
  6
Continuous
 62
     7
100
AcDbCircle
 10
-298.5671999581081
 20
-88.19424585253522
 30
0.0
 40
0.4000000000000432
100
AcDbArc
 50
42.56424259991839
 51
103.9859787130667
  0
ARC
  5
2BD
330
6A
100
AcDbEntity
  8
0
  6
Continuous
 62
     7
100
AcDbCircle
 10
-274.495429744559
 20
-184.8415938698818
 30
0.0
 40
100.0000000000001
100
AcDbArc
 50
103.9859787130726
 51
104.0494654987105
  0
ARC
  5
2BE
330
6A
100
AcDbEntity
  8
0
  6
Continuous
 62
     7
100
AcDbCircle
 10
-298.6499996356315
 20
-88.31798663632827
 30
0.0
 40
0.499999999999981
100
AcDbArc
 50
104.049465498708
 51
180.0
  0
ARC
  5
2BF
330
6A
100
AcDbEntity
  8
0
  6
Continuous
 62
     7
100
AcDbCircle
 10
-318.5499996356315
 20
-148.8724401019628
 30
0.0
 40
0.2000000000000455
100
AcDbArc
 50
180.0
 51
315.0
  0
ARC
  5
2C0
330
6A
100
AcDbEntity
  8
0
  6
Continuous
 62
     7
100
AcDbCircle
 10
-305.1138399762712
 20
-109.0836640887172
 30
0.0
 40
19.99999999999992
100
AcDbArc
 50
36.08033914987484
 51
72.65095620786005
  0
ENDBLK
  5
6C
330
6A
100
AcDbEntity
  8
0
100
AcDbBlockEnd
  0
BLOCK
  5
6F
330
6D
100
AcDbEntity
  8
0
100
AcDbBlockBegin
  2
Vordans1
 70
     0
 10
-301.0999999047525
 20
-117.000000746727
 30
0.0
  3
Vordans1
  1

  0
INSERT
  5
6E
330
6D
100
AcDbEntity
  8
0
100
AcDbBlockReference
  2
UK_10_3-HESI_1000V-select__6
 10
-344.2499996356315
 20
-149.1052828144374
 30
0.0
  0
LINE
  5
2C1
330
6D
100
AcDbEntity
  8
1
  6
DOT_CENTER
 62
     2
100
AcDbLine
 10
-298.2499996356316
 20
-141.789260306963
 30
0.0
 11
-298.2499996356316
 21
-149.1052828144374
 31
0.0
  0
MTEXT
  5
2C2
330
6D
100
AcDbEntity
  8
1
 62
     6
100
AcDbMText
 10
-301.0999999047526
 20
-154.105281829429
 30
0.0
 40
5.0
 41
0.0
 71
     2
 72
     1
  1
 
  7
CONVERTER_11
 73
     1
 44
1.32052821128451
  0
DIMENSION
  5
2CD
330
6D
100
AcDbEntity
  8
1
100
AcDbDimension
  2
*D18
 10
-354.2499996356328
 20
-143.3052828144374
 30
0.0
 11
-357.6749996356328
 21
-114.6655983218333
 31
0.0
 70
    32
  1
<>
 71
     5
 42
-1.0
 53
90.0
  3
ME10_DIM_11
100
AcDbAlignedDimension
 13
-279.8772723629042
 23
-88.23255554171011
 33
0.0
 14
-280.7499996356315
 24
-143.3052828144374
 34
0.0
 50
90.0
100
AcDbRotatedDimension
  0
DIMENSION
  5
2D8
330
6D
100
AcDbEntity
  8
1
100
AcDbDimension
  2
*D19
 10
-344.2499996356315
 20
-175.1052828144374
 30
0.0
 11
-300.082560680068
 21
-171.6802828144374
 31
0.0
 70
    32
  1
<>
 71
     5
 42
-1.0
 53
0.00013888888889
  3
ME10_DIM_12
100
AcDbAlignedDimension
 13
-257.9499996356315
 23
-143.3052828144374
 33
0.0
 14
-344.2499996356315
 24
-147.6552828144374
 34
0.0
100
AcDbRotatedDimension
  0
DIMENSION
  5
2E3
330
6D
100
AcDbEntity
  8
1
100
AcDbDimension
  2
*D20
 10
-298.2499996356316
 20
-167.1052828144374
 30
0.0
 11
-278.532317756294
 21
-163.6802828144374
 31
0.0
 70
    32
  1
<>
 71
     5
 42
-1.0
 53
0.00013888888889
  3
ME10_DIM_13
100
AcDbAlignedDimension
 13
-257.9499996356315
 23
-143.3052828144374
 33
0.0
 14
-298.2499996356316
 24
-149.1052828144374
 34
0.0
100
AcDbRotatedDimension
  0
DIMENSION
  5
2EE
330
6D
100
AcDbEntity
  8
1
100
AcDbDimension
  2
*D21
 10
-298.2499996356316
 20
-159.1052828144374
 30
0.0
 11
-289.6948721749453
 21
-155.6802828144374
 31
0.0
 70
    32
  1
<>
 71
     5
 42
-1.0
 53
0.00013888888889
  3
ME10_DIM_14
100
AcDbAlignedDimension
 13
-280.7499996356315
 23
-144.4052828144374
 33
0.0
 14
-298.2499996356316
 24
-149.1052828144374
 34
0.0
100
AcDbRotatedDimension
  0
INSERT
  5
2F8
330
6D
100
AcDbEntity
  8
1
100
AcDbBlockReference
  2
*D22
 10
0.0
 20
0.0
 30
0.0
  0
INSERT
  5
302
330
6D
100
AcDbEntity
  8
1
100
AcDbBlockReference
  2
*D23
 10
0.0
 20
0.0
 30
0.0
  0
ENDBLK
  5
70
330
6D
100
AcDbEntity
  8
0
100
AcDbBlockEnd
  0
BLOCK
  5
72
330
71
100
AcDbEntity
  8
0
100
AcDbBlockBegin
  2
_rahmen
 70
     0
 10
-123.4999999999899
 20
-267.0000000000051
 30
0.0
  3
_rahmen
  1

  0
LINE
  5
303
330
71
100
AcDbEntity
  8
1
  6
Continuous
 62
     6
100
AcDbLine
 10
-253.0448045267399
 20
-236.500000000005
 30
0.0
 11
-123.4999999999882
 21
-236.500000000005
 31
0.0
  0
LINE
  5
304
330
71
100
AcDbEntity
  8
1
  6
Continuous
 62
     7
100
AcDbLine
 10
-234.8448045267399
 20
-257.750000000005
 30
0.0
 11
-216.64480452674
 21
-257.750000000005
 31
0.0
  0
LINE
  5
305
330
71
100
AcDbEntity
  8
1
  6
Continuous
 62
     6
100
AcDbLine
 10
-234.8448045267399
 20
-262.000000000005
 30
0.0
 11
-253.0448045267399
 21
-262.0000000000051
 31
0.0
  0
LINE
  5
306
330
71
100
AcDbEntity
  8
1
  6
Continuous
 62
     7
100
AcDbLine
 10
-234.8448045267399
 20
-257.750000000005
 30
0.0
 11
-234.8448045267399
 21
-262.000000000005
 31
0.0
  0
LINE
  5
307
330
71
100
AcDbEntity
  8
1
  6
Continuous
 62
     7
100
AcDbLine
 10
-216.64480452674
 20
-257.750000000005
 30
0.0
 11
-216.64480452674
 21
-262.0000000000051
 31
0.0
  0
LINE
  5
308
330
71
100
AcDbEntity
  8
1
  6
Continuous
 62
     7
100
AcDbLine
 10
-253.0448045267399
 20
-257.7500000000051
 30
0.0
 11
-253.0448045267399
 21
-262.0000000000051
 31
0.0
  0
LINE
  5
309
330
71
100
AcDbEntity
  8
1
  6
Continuous
 62
     7
100
AcDbLine
 10
-253.0448045267399
 20
-257.7500000000051
 30
0.0
 11
-234.8448045267399
 21
-257.750000000005
 31
0.0
  0
LINE
  5
30A
330
71
100
AcDbEntity
  8
1
  6
Continuous
 62
     2
100
AcDbLine
 10
-243.8081496401773
 20
-238.3750000000051
 30
0.0
 11
-243.8081496401773
 21
-243.3750000000051
 31
0.0
  0
LINE
  5
30B
330
71
100
AcDbEntity
  8
1
  6
Continuous
 62
     2
100
AcDbLine
 10
-243.8081496401773
 20
-243.3750000000051
 30
0.0
 11
-248.8081496401773
 21
-242.1250000000051
 31
0.0
  0
LINE
  5
30C
330
71
100
AcDbEntity
  8
1
  6
Continuous
 62
     2
100
AcDbLine
 10
-248.8081496401773
 20
-242.1250000000051
 30
0.0
 11
-248.8081496401773
 21
-239.6250000000051
 31
0.0
  0
LINE
  5
30D
330
71
100
AcDbEntity
  8
1
  6
Continuous
 62
     2
100
AcDbLine
 10
-248.8081496401773
 20
-239.6250000000051
 30
0.0
 11
-243.8081496401773
 21
-238.3750000000051
 31
0.0
  0
LINE
  5
30E
330
71
100
AcDbEntity
  8
1
  6
Continuous
 62
     6
100
AcDbLine
 10
-375.4999999999881
 20
-262.000000000005
 30
0.0
 11
-410.499999999988
 21
-262.000000000005
 31
0.0
  0
LINE
  5
30F
330
71
100
AcDbEntity
  8
1
  6
Continuous
 62
     6
100
AcDbLine
 10
-123.4999999999882
 20
-245.000000000005
 30
0.0
 11
-123.4999999999886
 21
-253.500000000005
 31
0.0
  0
LINE
  5
310
330
71
100
AcDbEntity
  8
1
  6
Continuous
 62
     6
100
AcDbLine
 10
-216.64480452674
 20
-262.0000000000051
 30
0.0
 11
-216.9999999999899
 21
-262.000000000005
 31
0.0
  0
LINE
  5
311
330
71
100
AcDbEntity
  8
1
  6
Continuous
 62
     6
100
AcDbLine
 10
-369.2999999999901
 20
-262.0000000000051
 30
0.0
 11
-375.4999999999881
 21
-262.000000000005
 31
0.0
  0
LINE
  5
312
330
71
100
AcDbEntity
  8
1
  6
Continuous
 62
     7
100
AcDbLine
 10
-216.64480452674
 20
-245.000000000005
 30
0.0
 11
-216.64480452674
 21
-257.750000000005
 31
0.0
  0
LINE
  5
313
330
71
100
AcDbEntity
  8
1
  6
Continuous
 62
     7
100
AcDbLine
 10
-253.0448045267399
 20
-245.000000000005
 30
0.0
 11
-253.0448045267399
 21
-257.7500000000051
 31
0.0
  0
LINE
  5
314
330
71
100
AcDbEntity
  8
1
  6
Continuous
 62
     6
100
AcDbLine
 10
-266.9999999999899
 20
-262.000000000005
 30
0.0
 11
-316.9999999999901
 21
-262.000000000005
 31
0.0
  0
LINE
  5
315
330
71
100
AcDbEntity
  8
1
  6
Continuous
 62
     6
100
AcDbLine
 10
-369.2999999999901
 20
-262.0000000000051
 30
0.0
 11
-366.9999999999899
 21
-262.000000000005
 31
0.0
  0
LINE
  5
316
330
71
100
AcDbEntity
  8
1
  6
Continuous
 62
     6
100
AcDbLine
 10
-216.64480452674
 20
-262.0000000000051
 30
0.0
 11
-166.9999999999899
 21
-262.000000000005
 31
0.0
  0
LINE
  5
317
330
71
100
AcDbEntity
  8
1
  6
Continuous
 62
     6
100
AcDbLine
 10
-123.4999999999899
 20
-262.000000000005
 30
0.0
 11
-123.4999999999886
 21
-253.500000000005
 31
0.0
  0
LINE
  5
318
330
71
100
AcDbEntity
  8
1
  6
Continuous
 62
     2
100
AcDbLine
 10
-415.499999999989
 20
-262.000000000005
 30
0.0
 11
-415.499999999989
 21
-267.0000000000051
 31
0.0
  0
LINE
  5
319
330
71
100
AcDbEntity
  8
1
  6
Continuous
 62
     2
100
AcDbLine
 10
-410.499999999988
 20
-262.000000000005
 30
0.0
 11
-415.499999999989
 21
-262.000000000005
 31
0.0
  0
LINE
  5
31A
330
71
100
AcDbEntity
  8
1
  6
Continuous
 62
     2
100
AcDbLine
 10
-410.499999999988
 20
-267.0000000000051
 30
0.0
 11
-366.9999999999899
 21
-267.0000000000051
 31
0.0
  0
LINE
  5
31B
330
71
100
AcDbEntity
  8
1
  6
Continuous
 62
     2
100
AcDbLine
 10
-410.499999999988
 20
-262.000000000005
 30
0.0
 11
-410.499999999988
 21
-267.0000000000051
 31
0.0
  0
LINE
  5
31C
330
71
100
AcDbEntity
  8
1
  6
Continuous
 62
     2
100
AcDbLine
 10
-166.9999999999899
 20
-267.0000000000051
 30
0.0
 11
-216.9999999999899
 21
-267.0000000000051
 31
0.0
  0
LINE
  5
31D
330
71
100
AcDbEntity
  8
1
  6
Continuous
 62
     2
100
AcDbLine
 10
-166.9999999999899
 20
-267.0000000000051
 30
0.0
 11
-166.9999999999899
 21
-262.000000000005
 31
0.0
  0
LINE
  5
31E
330
71
100
AcDbEntity
  8
1
  6
Continuous
 62
     2
100
AcDbLine
 10
-216.9999999999899
 20
-267.0000000000051
 30
0.0
 11
-216.9999999999899
 21
-262.000000000005
 31
0.0
  0
LINE
  5
31F
330
71
100
AcDbEntity
  8
1
  6
Continuous
 62
     2
100
AcDbLine
 10
-266.9999999999899
 20
-267.0000000000051
 30
0.0
 11
-216.9999999999899
 21
-267.0000000000051
 31
0.0
  0
LINE
  5
320
330
71
100
AcDbEntity
  8
1
  6
Continuous
 62
     2
100
AcDbLine
 10
-266.9999999999899
 20
-267.0000000000051
 30
0.0
 11
-266.9999999999899
 21
-262.000000000005
 31
0.0
  0
LINE
  5
321
330
71
100
AcDbEntity
  8
1
  6
Continuous
 62
     2
100
AcDbLine
 10
-316.9999999999901
 20
-267.0000000000051
 30
0.0
 11
-266.9999999999899
 21
-267.0000000000051
 31
0.0
  0
LINE
  5
322
330
71
100
AcDbEntity
  8
1
  6
Continuous
 62
     2
100
AcDbLine
 10
-316.9999999999901
 20
-267.0000000000051
 30
0.0
 11
-316.9999999999901
 21
-262.000000000005
 31
0.0
  0
LINE
  5
323
330
71
100
AcDbEntity
  8
1
  6
Continuous
 62
     2
100
AcDbLine
 10
-366.9999999999899
 20
-267.0000000000051
 30
0.0
 11
-316.9999999999901
 21
-267.0000000000051
 31
0.0
  0
LINE
  5
324
330
71
100
AcDbEntity
  8
1
  6
Continuous
 62
     2
100
AcDbLine
 10
-366.9999999999899
 20
-267.0000000000051
 30
0.0
 11
-366.9999999999899
 21
-262.000000000005
 31
0.0
  0
LINE
  5
325
330
71
100
AcDbEntity
  8
1
  6
Continuous
 62
     6
100
AcDbLine
 10
-410.4999999999882
 20
-212.0000000000049
 30
0.0
 11
-410.499999999988
 21
-262.000000000005
 31
0.0
  0
LINE
  5
326
330
71
100
AcDbEntity
  8
1
  6
Continuous
 62
     2
100
AcDbLine
 10
-415.499999999989
 20
-212.0000000000049
 30
0.0
 11
-415.499999999989
 21
-262.000000000005
 31
0.0
  0
LINE
  5
327
330
71
100
AcDbEntity
  8
1
  6
Continuous
 62
     2
100
AcDbLine
 10
-415.499999999989
 20
-212.0000000000049
 30
0.0
 11
-410.4999999999882
 21
-212.0000000000049
 31
0.0
  0
LINE
  5
328
330
71
100
AcDbEntity
  8
1
  6
Continuous
 62
     6
100
AcDbLine
 10
-410.4999999999884
 20
-162.0000000000051
 30
0.0
 11
-410.4999999999882
 21
-212.0000000000049
 31
0.0
  0
LINE
  5
329
330
71
100
AcDbEntity
  8
1
  6
Continuous
 62
     2
100
AcDbLine
 10
-415.499999999989
 20
-162.0000000000051
 30
0.0
 11
-415.499999999989
 21
-212.0000000000049
 31
0.0
  0
LINE
  5
32A
330
71
100
AcDbEntity
  8
1
  6
Continuous
 62
     2
100
AcDbLine
 10
-415.499999999989
 20
-162.0000000000051
 30
0.0
 11
-410.4999999999884
 21
-162.0000000000051
 31
0.0
  0
LINE
  5
32B
330
71
100
AcDbEntity
  8
1
  6
Continuous
 62
     6
100
AcDbLine
 10
-410.4999999999889
 20
-112.000000000005
 30
0.0
 11
-410.4999999999884
 21
-162.0000000000051
 31
0.0
  0
LINE
  5
32C
330
71
100
AcDbEntity
  8
1
  6
Continuous
 62
     2
100
AcDbLine
 10
-415.499999999989
 20
-112.000000000005
 30
0.0
 11
-415.499999999989
 21
-162.0000000000051
 31
0.0
  0
LINE
  5
32D
330
71
100
AcDbEntity
  8
1
  6
Continuous
 62
     2
100
AcDbLine
 10
-415.499999999989
 20
-112.000000000005
 30
0.0
 11
-410.4999999999889
 21
-112.000000000005
 31
0.0
  0
LINE
  5
32E
330
71
100
AcDbEntity
  8
1
  6
Continuous
 62
     6
100
AcDbLine
 10
-410.499999999989
 20
-77.000000000005
 30
0.0
 11
-410.4999999999889
 21
-112.000000000005
 31
0.0
  0
LINE
  5
32F
330
71
100
AcDbEntity
  8
1
  6
Continuous
 62
     2
100
AcDbLine
 10
-415.499999999989
 20
-57.000000000005
 30
0.0
 11
-415.499999999989
 21
-112.000000000005
 31
0.0
  0
LINE
  5
330
330
71
100
AcDbEntity
  8
1
  6
Continuous
 62
     2
100
AcDbLine
 10
-415.499999999989
 20
-267.0000000000051
 30
0.0
 11
-410.499999999988
 21
-267.0000000000051
 31
0.0
  0
LINE
  5
331
330
71
100
AcDbEntity
  8
1
  6
Continuous
 62
     2
100
AcDbLine
 10
-266.9999999999899
 20
-57.000000000005
 30
0.0
 11
-266.9999999999899
 21
-66.20869184470632
 31
0.0
  0
LINE
  5
332
330
71
100
AcDbEntity
  8
1
  6
Continuous
 62
     2
100
AcDbLine
 10
-266.9999999999899
 20
-57.000000000005
 30
0.0
 11
-415.499999999989
 21
-57.000000000005
 31
0.0
  0
LINE
  5
333
330
71
100
AcDbEntity
  8
1
  6
Continuous
 62
     2
100
AcDbLine
 10
-118.4999999999909
 20
-262.000000000005
 30
0.0
 11
-118.4999999999909
 21
-212.0000000000049
 31
0.0
  0
LINE
  5
334
330
71
100
AcDbEntity
  8
1
  6
Continuous
 62
     2
100
AcDbLine
 10
-118.4999999999909
 20
-112.000000000005
 30
0.0
 11
-118.4999999999909
 21
-57.000000000005
 31
0.0
  0
LINE
  5
335
330
71
100
AcDbEntity
  8
1
  6
Continuous
 62
     6
100
AcDbLine
 10
-123.4999999999907
 20
-112.000000000005
 30
0.0
 11
-123.4999999999909
 21
-77.000000000005
 31
0.0
  0
LINE
  5
336
330
71
100
AcDbEntity
  8
1
  6
Continuous
 62
     2
100
AcDbLine
 10
-123.4999999999907
 20
-112.000000000005
 30
0.0
 11
-118.4999999999909
 21
-112.000000000005
 31
0.0
  0
LINE
  5
337
330
71
100
AcDbEntity
  8
1
  6
Continuous
 62
     2
100
AcDbLine
 10
-118.4999999999909
 20
-162.0000000000051
 30
0.0
 11
-118.4999999999909
 21
-112.000000000005
 31
0.0
  0
LINE
  5
338
330
71
100
AcDbEntity
  8
1
  6
Continuous
 62
     6
100
AcDbLine
 10
-123.4999999999895
 20
-162.0000000000051
 30
0.0
 11
-123.4999999999907
 21
-112.000000000005
 31
0.0
  0
LINE
  5
339
330
71
100
AcDbEntity
  8
1
  6
Continuous
 62
     2
100
AcDbLine
 10
-123.4999999999895
 20
-162.0000000000051
 30
0.0
 11
-118.4999999999909
 21
-162.0000000000051
 31
0.0
  0
LINE
  5
33A
330
71
100
AcDbEntity
  8
1
  6
Continuous
 62
     2
100
AcDbLine
 10
-118.4999999999909
 20
-212.0000000000049
 30
0.0
 11
-118.4999999999909
 21
-162.0000000000051
 31
0.0
  0
LINE
  5
33B
330
71
100
AcDbEntity
  8
1
  6
Continuous
 62
     6
100
AcDbLine
 10
-123.499999999989
 20
-212.0000000000049
 30
0.0
 11
-123.4999999999895
 21
-162.0000000000051
 31
0.0
  0
LINE
  5
33C
330
71
100
AcDbEntity
  8
1
  6
Continuous
 62
     2
100
AcDbLine
 10
-123.499999999989
 20
-212.0000000000049
 30
0.0
 11
-118.4999999999909
 21
-212.0000000000049
 31
0.0
  0
LINE
  5
33D
330
71
100
AcDbEntity
  8
1
  6
Continuous
 62
     6
100
AcDbLine
 10
-123.4999999999909
 20
-77.000000000005
 30
0.0
 11
-410.499999999989
 21
-77.000000000005
 31
0.0
  0
LINE
  5
33E
330
71
100
AcDbEntity
  8
1
  6
Continuous
 62
     2
100
AcDbLine
 10
-118.4999999999909
 20
-57.000000000005
 30
0.0
 11
-266.9999999999899
 21
-57.000000000005
 31
0.0
  0
LINE
  5
33F
330
71
100
AcDbEntity
  8
1
  6
Continuous
 62
     6
100
AcDbLine
 10
-123.4999999999882
 20
-245.000000000005
 30
0.0
 11
-123.499999999989
 21
-212.0000000000049
 31
0.0
  0
LINE
  5
340
330
71
100
AcDbEntity
  8
1
  6
Continuous
 62
     2
100
AcDbLine
 10
-123.4999999999899
 20
-267.0000000000051
 30
0.0
 11
-166.9999999999899
 21
-267.0000000000051
 31
0.0
  0
LINE
  5
341
330
71
100
AcDbEntity
  8
1
  6
Continuous
 62
     2
100
AcDbLine
 10
-118.4999999999909
 20
-267.0000000000051
 30
0.0
 11
-123.4999999999899
 21
-267.0000000000051
 31
0.0
  0
LINE
  5
342
330
71
100
AcDbEntity
  8
1
  6
Continuous
 62
     2
100
AcDbLine
 10
-118.4999999999909
 20
-267.0000000000051
 30
0.0
 11
-118.4999999999909
 21
-262.000000000005
 31
0.0
  0
LINE
  5
343
330
71
100
AcDbEntity
  8
1
  6
Continuous
 62
     6
100
AcDbLine
 10
-253.0448045267399
 20
-245.000000000005
 30
0.0
 11
-216.64480452674
 21
-245.000000000005
 31
0.0
  0
LINE
  5
344
330
71
100
AcDbEntity
  8
1
  6
Continuous
 62
     2
100
AcDbLine
 10
-123.4999999999899
 20
-262.000000000005
 30
0.0
 11
-123.4999999999899
 21
-267.0000000000051
 31
0.0
  0
LINE
  5
345
330
71
100
AcDbEntity
  8
1
  6
Continuous
 62
     2
100
AcDbLine
 10
-123.4999999999899
 20
-262.000000000005
 30
0.0
 11
-118.4999999999909
 21
-262.000000000005
 31
0.0
  0
LINE
  5
346
330
71
100
AcDbEntity
  8
1
  6
Continuous
 62
     6
100
AcDbLine
 10
-216.9999999999899
 20
-262.000000000005
 30
0.0
 11
-234.8448045267399
 21
-262.000000000005
 31
0.0
  0
LINE
  5
347
330
71
100
AcDbEntity
  8
1
  6
Continuous
 62
     6
100
AcDbLine
 10
-166.9999999999899
 20
-262.000000000005
 30
0.0
 11
-123.4999999999899
 21
-262.000000000005
 31
0.0
  0
LINE
  5
348
330
71
100
AcDbEntity
  8
1
  6
Continuous
 62
     6
100
AcDbLine
 10
-316.9999999999901
 20
-262.000000000005
 30
0.0
 11
-322.0448045267399
 21
-262.000000000005
 31
0.0
  0
LINE
  5
349
330
71
100
AcDbEntity
  8
1
  6
Continuous
 62
     6
100
AcDbLine
 10
-266.9999999999899
 20
-262.000000000005
 30
0.0
 11
-253.0448045267399
 21
-262.0000000000051
 31
0.0
  0
LINE
  5
34A
102
{ACAD_REACTORS
330
434
330
435
102
}
330
71
100
AcDbEntity
  8
0
  6
Continuous
 62
     2
100
AcDbLine
 10
-245.5301785845931
 20
-249.9274852437929
 30
0.0
 11
-245.5301785845931
 21
-249.3219499552861
 31
0.0
  0
LINE
  5
34B
102
{ACAD_REACTORS
330
434
330
435
102
}
330
71
100
AcDbEntity
  8
0
  6
Continuous
 62
     2
100
AcDbLine
 10
-245.5301785845931
 20
-252.7276198504242
 30
0.0
 11
-245.5301785845931
 21
-252.1457684437291
 31
0.0
  0
LINE
  5
34C
102
{ACAD_REACTORS
330
436
330
437
102
}
330
71
100
AcDbEntity
  8
0
  6
Continuous
 62
     2
100
AcDbLine
 10
-222.9006921491139
 20
-252.4379557823012
 30
0.0
 11
-222.9006921491139
 21
-254.7064999999887
 31
0.0
  0
LINE
  5
34D
102
{ACAD_REACTORS
330
436
330
437
102
}
330
71
100
AcDbEntity
  8
0
  6
Continuous
 62
     2
100
AcDbLine
 10
-224.2817459281015
 20
-251.6526904761781
 30
0.0
 11
-220.8968004094728
 21
-251.6526904761776
 31
0.0
  0
LINE
  5
34E
102
{ACAD_REACTORS
330
436
330
437
102
}
330
71
100
AcDbEntity
  8
0
  6
Continuous
 62
     2
100
AcDbLine
 10
-220.8968004094728
 20
-252.4379557823012
 30
0.0
 11
-220.8968004094728
 21
-251.6526904761776
 31
0.0
  0
LINE
  5
34F
102
{ACAD_REACTORS
330
436
330
437
102
}
330
71
100
AcDbEntity
  8
0
  6
Continuous
 62
     2
100
AcDbLine
 10
-221.7078994469462
 20
-252.4379557823012
 30
0.0
 11
-220.8968004094728
 21
-252.4379557823012
 31
0.0
  0
LINE
  5
350
102
{ACAD_REACTORS
330
436
330
437
102
}
330
71
100
AcDbEntity
  8
0
  6
Continuous
 62
     2
100
AcDbLine
 10
-221.7078994469462
 20
-254.7064999999887
 30
0.0
 11
-221.7078994469462
 21
-252.4379557823012
 31
0.0
  0
LINE
  5
351
102
{ACAD_REACTORS
330
436
330
437
102
}
330
71
100
AcDbEntity
  8
0
  6
Continuous
 62
     2
100
AcDbLine
 10
-222.9006921491139
 20
-254.7064999999887
 30
0.0
 11
-221.7078994469462
 21
-254.7064999999887
 31
0.0
  0
LINE
  5
352
102
{ACAD_REACTORS
330
42C
330
42D
102
}
330
71
100
AcDbEntity
  8
0
  6
Continuous
 62
     2
100
AcDbLine
 10
-223.5972830871784
 20
-248.2935000000032
 30
0.0
 11
-225.0000073049277
 21
-248.2935000000032
 31
0.0
  0
LINE
  5
353
102
{ACAD_REACTORS
330
42C
330
42D
102
}
330
71
100
AcDbEntity
  8
0
  6
Continuous
 62
     2
100
AcDbLine
 10
-223.5972830871784
 20
-248.2935000000032
 30
0.0
 11
-222.9961155652866
 21
-248.9733233215587
 31
0.0
  0
LINE
  5
354
102
{ACAD_REACTORS
330
42C
330
42D
102
}
330
71
100
AcDbEntity
  8
0
  6
Continuous
 62
     2
100
AcDbLine
 10
-222.9961155652866
 20
-248.9733233215587
 30
0.0
 11
-222.3949480433938
 21
-248.2935000000032
 31
0.0
  0
LINE
  5
355
102
{ACAD_REACTORS
330
42C
330
42D
102
}
330
71
100
AcDbEntity
  8
0
  6
Continuous
 62
     2
100
AcDbLine
 10
-222.2947534564131
 20
-249.7664505300394
 30
0.0
 11
-220.9922238256466
 21
-248.2935000000032
 31
0.0
  0
LINE
  5
356
102
{ACAD_REACTORS
330
42C
330
42D
102
}
330
71
100
AcDbEntity
  8
0
  6
Continuous
 62
     2
100
AcDbLine
 10
-222.2947534564131
 20
-249.7664505300394
 30
0.0
 11
-220.8968004094728
 21
-251.3473095238144
 31
0.0
  0
LINE
  5
357
102
{ACAD_REACTORS
330
42C
330
42D
102
}
330
71
100
AcDbEntity
  8
0
  6
Continuous
 62
     2
100
AcDbLine
 10
-222.2995246272211
 20
-251.3473095238144
 30
0.0
 11
-220.8968004094728
 21
-251.3473095238144
 31
0.0
  0
LINE
  5
358
102
{ACAD_REACTORS
330
42C
330
42D
102
}
330
71
100
AcDbEntity
  8
0
  6
Continuous
 62
     2
100
AcDbLine
 10
-222.9961155652866
 20
-250.5595777385207
 30
0.0
 11
-222.2995246272211
 21
-251.3473095238144
 31
0.0
  0
LINE
  5
359
102
{ACAD_REACTORS
330
42A
330
42B
102
}
330
71
100
AcDbEntity
  8
0
  6
Continuous
 62
     2
100
AcDbLine
 10
-226.4552144015703
 20
-248.2935000000032
 30
0.0
 11
-225.2147099913174
 21
-248.2935000000032
 31
0.0
  0
LINE
  5
35A
102
{ACAD_REACTORS
330
42A
330
42B
102
}
330
71
100
AcDbEntity
  8
0
  6
Continuous
 62
     2
100
AcDbLine
 10
-225.2147099913174
 20
-248.2935000000032
 30
0.0
 11
-225.2147099913174
 21
-251.3473095238144
 31
0.0
  0
LINE
  5
35B
102
{ACAD_REACTORS
330
42A
330
42B
102
}
330
71
100
AcDbEntity
  8
0
  6
Continuous
 62
     2
100
AcDbLine
 10
-226.4552144015703
 20
-251.3473095238144
 30
0.0
 11
-226.4552144015703
 21
-248.2935000000032
 31
0.0
  0
LINE
  5
35C
102
{ACAD_REACTORS
330
428
330
429
102
}
330
71
100
AcDbEntity
  8
0
  6
Continuous
 62
     2
100
AcDbLine
 10
-227.9235244841079
 20
-253.4849761904642
 30
0.0
 11
-227.6233592469155
 21
-252.7171612244775
 31
0.0
  0
LINE
  5
35D
102
{ACAD_REACTORS
330
428
330
429
102
}
330
71
100
AcDbEntity
  8
0
  6
Continuous
 62
     2
100
AcDbLine
 10
-228.4010600887287
 20
-254.7064999999887
 30
0.0
 11
-228.1895800352529
 21
-254.1655394557708
 31
0.0
  0
LINE
  5
35E
102
{ACAD_REACTORS
330
428
330
429
102
}
330
71
100
AcDbEntity
  8
0
  6
Continuous
 62
     2
100
AcDbLine
 10
-228.2436114520424
 20
-251.6526904761776
 30
0.0
 11
-229.6415644989817
 21
-254.7064999999887
 31
0.0
  0
LINE
  5
35F
102
{ACAD_REACTORS
330
428
330
429
102
}
330
71
100
AcDbEntity
  8
0
  6
Continuous
 62
     2
100
AcDbLine
 10
-225.6051539948494
 20
-254.7064999999887
 30
0.0
 11
-226.8456584051033
 21
-254.7064999999887
 31
0.0
  0
LINE
  5
360
102
{ACAD_REACTORS
330
428
330
429
102
}
330
71
100
AcDbEntity
  8
0
  6
Continuous
 62
     2
100
AcDbLine
 10
-228.1895800352529
 20
-254.1655394557708
 30
0.0
 11
-227.0571384585791
 21
-254.1655394557708
 31
0.0
  0
LINE
  5
361
102
{ACAD_REACTORS
330
426
330
427
102
}
330
71
100
AcDbEntity
  8
0
  6
Continuous
 62
     2
100
AcDbLine
 10
-231.7990766381639
 20
-252.4379557823012
 30
0.0
 11
-230.9879776006893
 21
-252.4379557823012
 31
0.0
  0
LINE
  5
362
102
{ACAD_REACTORS
330
426
330
427
102
}
330
71
100
AcDbEntity
  8
0
  6
Continuous
 62
     2
100
AcDbLine
 10
-228.9840858610503
 20
-251.6526904761776
 30
0.0
 11
-231.7990766381639
 21
-251.6526904761776
 31
0.0
  0
LINE
  5
363
102
{ACAD_REACTORS
330
426
330
427
102
}
330
71
100
AcDbEntity
  8
0
  6
Continuous
 62
     2
100
AcDbLine
 10
-228.9840858610503
 20
-252.4379557823012
 30
0.0
 11
-228.9840858610503
 21
-251.6526904761776
 31
0.0
  0
LINE
  5
364
102
{ACAD_REACTORS
330
426
330
427
102
}
330
71
100
AcDbEntity
  8
0
  6
Continuous
 62
     2
100
AcDbLine
 10
-229.7951848985228
 20
-252.4379557823012
 30
0.0
 11
-228.9840858610503
 21
-252.4379557823012
 31
0.0
  0
LINE
  5
365
102
{ACAD_REACTORS
330
426
330
427
102
}
330
71
100
AcDbEntity
  8
0
  6
Continuous
 62
     2
100
AcDbLine
 10
-229.7951848985228
 20
-254.7064999999887
 30
0.0
 11
-229.7951848985228
 21
-252.4379557823012
 31
0.0
  0
LINE
  5
366
102
{ACAD_REACTORS
330
424
330
425
102
}
330
71
100
AcDbEntity
  8
0
  6
Continuous
 62
     2
100
AcDbLine
 10
-229.1270700544248
 20
-251.3473095238144
 30
0.0
 11
-229.1270700544248
 21
-250.0385340136097
 31
0.0
  0
LINE
  5
367
102
{ACAD_REACTORS
330
424
330
425
102
}
330
71
100
AcDbEntity
  8
0
  6
Continuous
 62
     2
100
AcDbLine
 10
-230.3198627565913
 20
-248.2935000000032
 30
0.0
 11
-230.3198627565913
 21
-251.3473095238144
 31
0.0
  0
LINE
  5
368
102
{ACAD_REACTORS
330
424
330
425
102
}
330
71
100
AcDbEntity
  8
0
  6
Continuous
 62
     2
100
AcDbLine
 10
-229.1270700544248
 20
-248.2935000000032
 30
0.0
 11
-230.3198627565913
 21
-248.2935000000032
 31
0.0
  0
LINE
  5
369
102
{ACAD_REACTORS
330
424
330
425
102
}
330
71
100
AcDbEntity
  8
0
  6
Continuous
 62
     2
100
AcDbLine
 10
-227.8865656441708
 20
-248.2935000000032
 30
0.0
 11
-227.8865656441708
 21
-249.6022755102084
 31
0.0
  0
LINE
  5
36A
102
{ACAD_REACTORS
330
422
330
423
102
}
330
71
100
AcDbEntity
  8
0
  6
Continuous
 62
     2
100
AcDbLine
 10
-235.568301577011
 20
-251.6526904761776
 30
0.0
 11
-235.568301577011
 21
-254.7064999999887
 31
0.0
  0
LINE
  5
36B
102
{ACAD_REACTORS
330
422
330
423
102
}
330
71
100
AcDbEntity
  8
0
  6
Continuous
 62
     2
100
AcDbLine
 10
-234.3755088748434
 20
-251.6526904761776
 30
0.0
 11
-235.568301577011
 21
-251.6526904761776
 31
0.0
  0
LINE
  5
36C
102
{ACAD_REACTORS
330
422
330
423
102
}
330
71
100
AcDbEntity
  8
0
  6
Continuous
 62
     2
100
AcDbLine
 10
-233.1350044645905
 20
-254.7064999999887
 30
0.0
 11
-231.9422117624241
 21
-254.7064999999887
 31
0.0
  0
LINE
  5
36D
102
{ACAD_REACTORS
330
422
330
423
102
}
330
71
100
AcDbEntity
  8
0
  6
Continuous
 62
     2
100
AcDbLine
 10
-235.568301577011
 20
-254.7064999999887
 30
0.0
 11
-234.3755088748434
 21
-254.7064999999887
 31
0.0
  0
LINE
  5
36E
102
{ACAD_REACTORS
330
432
330
433
102
}
330
71
100
AcDbEntity
  8
0
  6
Continuous
 62
     2
100
AcDbLine
 10
-231.8943491234519
 20
-249.4713979591879
 30
0.0
 11
-231.8943491234519
 21
-248.9915136054462
 31
0.0
  0
LINE
  5
36F
102
{ACAD_REACTORS
330
432
330
433
102
}
330
71
100
AcDbEntity
  8
0
  6
Continuous
 62
     2
100
AcDbLine
 10
-230.5584212970242
 20
-249.4713979591879
 30
0.0
 11
-231.8943491234519
 21
-249.4713979591879
 31
0.0
  0
LINE
  5
370
102
{ACAD_REACTORS
330
432
330
433
102
}
330
71
100
AcDbEntity
  8
0
  6
Continuous
 62
     2
100
AcDbLine
 10
-230.5584212970242
 20
-250.1694115646302
 30
0.0
 11
-230.5584212970242
 21
-249.4713979591879
 31
0.0
  0
LINE
  5
371
102
{ACAD_REACTORS
330
432
330
433
102
}
330
71
100
AcDbEntity
  8
0
  6
Continuous
 62
     2
100
AcDbLine
 10
-231.8943491234519
 20
-250.1694115646302
 30
0.0
 11
-230.5584212970242
 21
-250.1694115646302
 31
0.0
  0
LINE
  5
372
102
{ACAD_REACTORS
330
420
330
421
102
}
330
71
100
AcDbEntity
  8
0
  6
Continuous
 62
     2
100
AcDbLine
 10
-235.3773038137788
 20
-248.2935000000032
 30
0.0
 11
-235.3773038137788
 21
-251.3473095238144
 31
0.0
  0
LINE
  5
373
102
{ACAD_REACTORS
330
420
330
421
102
}
330
71
100
AcDbEntity
  8
0
  6
Continuous
 62
     2
100
AcDbLine
 10
-235.3773038137788
 20
-251.3473095238144
 30
0.0
 11
-236.5700965159452
 21
-251.3473095238144
 31
0.0
  0
LINE
  5
374
102
{ACAD_REACTORS
330
420
330
421
102
}
330
71
100
AcDbEntity
  8
0
  6
Continuous
 62
     2
100
AcDbLine
 10
-236.5700965159452
 20
-251.3473095238144
 30
0.0
 11
-236.5700965159452
 21
-250.2130374149706
 31
0.0
  0
LINE
  5
375
102
{ACAD_REACTORS
330
420
330
421
102
}
330
71
100
AcDbEntity
  8
0
  6
Continuous
 62
     2
100
AcDbLine
 10
-237.6197540938527
 20
-251.3473095238144
 30
0.0
 11
-238.8125467960193
 21
-251.3473095238144
 31
0.0
  0
LINE
  5
376
102
{ACAD_REACTORS
330
420
330
421
102
}
330
71
100
AcDbEntity
  8
0
  6
Continuous
 62
     2
100
AcDbLine
 10
-238.8125467960193
 20
-248.2935000000032
 30
0.0
 11
-237.6197540938527
 21
-248.2935000000032
 31
0.0
  0
LINE
  5
377
102
{ACAD_REACTORS
330
420
330
421
102
}
330
71
100
AcDbEntity
  8
0
  6
Continuous
 62
     2
100
AcDbLine
 10
-237.6197540938527
 20
-248.2935000000032
 30
0.0
 11
-237.6197540938527
 21
-249.3623333333378
 31
0.0
  0
LINE
  5
378
102
{ACAD_REACTORS
330
420
330
421
102
}
330
71
100
AcDbEntity
  8
0
  6
Continuous
 62
     2
100
AcDbLine
 10
-237.6197540938527
 20
-249.3623333333378
 30
0.0
 11
-236.5700965159452
 21
-249.3623333333378
 31
0.0
  0
LINE
  5
379
102
{ACAD_REACTORS
330
42E
330
42F
102
}
330
71
100
AcDbEntity
  8
0
  6
Continuous
 62
     2
100
AcDbLine
 10
-240.7687268275729
 20
-248.9566058454433
 30
0.0
 11
-240.451431766031
 21
-248.9566058454433
 31
0.0
  0
LINE
  5
37A
102
{ACAD_REACTORS
330
42E
330
42F
102
}
330
71
100
AcDbEntity
  8
0
  6
Continuous
 62
     2
100
AcDbLine
 10
-240.7687268275729
 20
-249.6623334947855
 30
0.0
 11
-240.451431766031
 21
-249.6623334947855
 31
0.0
  0
LINE
  5
37B
102
{ACAD_REACTORS
330
42E
330
42F
102
}
330
71
100
AcDbEntity
  8
0
  6
Continuous
 62
     2
100
AcDbLine
 10
-242.009231237827
 20
-248.2935000000032
 30
0.0
 11
-242.009231237827
 21
-251.3473095238144
 31
0.0
  0
LINE
  5
37C
102
{ACAD_REACTORS
330
42E
330
42F
102
}
330
71
100
AcDbEntity
  8
0
  6
Continuous
 62
     2
100
AcDbLine
 10
-242.009231237827
 20
-248.2935000000032
 30
0.0
 11
-240.0099592397926
 21
-248.2935000000032
 31
0.0
  0
LINE
  5
37D
102
{ACAD_REACTORS
330
42E
330
42F
102
}
330
71
100
AcDbEntity
  8
0
  6
Continuous
 62
     2
100
AcDbLine
 10
-240.7687268275729
 20
-250.4042312826706
 30
0.0
 11
-240.0099592397926
 21
-250.4042312826706
 31
0.0
  0
LINE
  5
37E
102
{ACAD_REACTORS
330
434
330
435
102
}
330
71
100
AcDbEntity
  8
0
  6
Continuous
 62
     2
100
AcDbLine
 10
-248.1057272711237
 20
-249.321772478638
 30
0.0
 11
-248.1057272711237
 21
-253.6782275213551
 31
0.0
  0
LINE
  5
37F
102
{ACAD_REACTORS
330
434
330
435
102
}
330
71
100
AcDbEntity
  8
0
  6
Continuous
 62
     2
100
AcDbLine
 10
-247.790010348048
 20
-249.0060555555618
 30
0.0
 11
-246.3141770870384
 21
-249.0060555555618
 31
0.0
  0
LINE
  5
380
102
{ACAD_REACTORS
330
434
330
435
102
}
330
71
100
AcDbEntity
  8
0
  6
Continuous
 62
     2
100
AcDbLine
 10
-245.9984601639618
 20
-249.9257970976985
 30
0.0
 11
-245.9984601639618
 21
-249.321772478638
 31
0.0
  0
LINE
  5
381
102
{ACAD_REACTORS
330
434
330
435
102
}
330
71
100
AcDbEntity
  8
0
  6
Continuous
 62
     2
100
AcDbLine
 10
-245.9984601639618
 20
-253.6782275213551
 30
0.0
 11
-245.9984601639618
 21
-252.1474565898235
 31
0.0
  0
LINE
  5
382
102
{ACAD_REACTORS
330
434
330
435
102
}
330
71
100
AcDbEntity
  8
0
  6
Continuous
 62
     2
100
AcDbLine
 10
-242.9105929340777
 20
-254.7064999999887
 30
0.0
 11
-248.3839050247945
 21
-254.7064999999887
 31
0.0
  0
LINE
  5
383
102
{ACAD_REACTORS
330
434
330
435
102
}
330
71
100
AcDbEntity
  8
0
  6
Continuous
 62
     2
100
AcDbLine
 10
-242.4863483186938
 20
-248.7177446154052
 30
0.0
 11
-242.4863483186938
 21
-254.2822553846054
 31
0.0
  0
LINE
  5
384
102
{ACAD_REACTORS
330
434
330
435
102
}
330
71
100
AcDbEntity
  8
0
  6
Continuous
 62
     2
100
AcDbLine
 10
-248.3839050247945
 20
-248.2935000000214
 30
0.0
 11
-242.9105929340777
 21
-248.2935000000214
 31
0.0
  0
LINE
  5
385
102
{ACAD_REACTORS
330
434
330
435
102
}
330
71
100
AcDbEntity
  8
0
  6
Continuous
 62
     2
100
AcDbLine
 10
-248.8081496401773
 20
-248.7177446154052
 30
0.0
 11
-248.8081496401773
 21
-254.2822553846054
 31
0.0
  0
LINE
  5
386
102
{ACAD_REACTORS
330
434
330
435
102
}
330
71
100
AcDbEntity
  8
0
  6
Continuous
 62
     2
100
AcDbLine
 10
-246.3141770870384
 20
-253.9939444444318
 30
0.0
 11
-247.790010348048
 21
-253.9939444444318
 31
0.0
  0
LINE
  5
387
102
{ACAD_REACTORS
330
42E
330
42F
102
}
330
71
100
AcDbEntity
  8
0
  6
Continuous
 62
     2
100
AcDbLine
 10
-240.7687268275729
 20
-251.3473095238144
 30
0.0
 11
-240.7687268275729
 21
-250.4042312826706
 31
0.0
  0
LINE
  5
388
102
{ACAD_REACTORS
330
42E
330
42F
102
}
330
71
100
AcDbEntity
  8
0
  6
Continuous
 62
     2
100
AcDbLine
 10
-242.009231237827
 20
-251.3473095238144
 30
0.0
 11
-240.7687268275729
 21
-251.3473095238144
 31
0.0
  0
LINE
  5
389
102
{ACAD_REACTORS
330
42E
330
42F
102
}
330
71
100
AcDbEntity
  8
0
  6
Continuous
 62
     2
100
AcDbLine
 10
-240.7687268275729
 20
-249.6623334947855
 30
0.0
 11
-240.7687268275729
 21
-248.9566058454433
 31
0.0
  0
LINE
  5
38A
102
{ACAD_REACTORS
330
420
330
421
102
}
330
71
100
AcDbEntity
  8
0
  6
Continuous
 62
     2
100
AcDbLine
 10
-238.8125467960193
 20
-248.2935000000032
 30
0.0
 11
-238.8125467960193
 21
-251.3473095238144
 31
0.0
  0
LINE
  5
38B
102
{ACAD_REACTORS
330
420
330
421
102
}
330
71
100
AcDbEntity
  8
0
  6
Continuous
 62
     2
100
AcDbLine
 10
-237.6197540938527
 20
-250.2130374149706
 30
0.0
 11
-237.6197540938527
 21
-251.3473095238144
 31
0.0
  0
LINE
  5
38C
102
{ACAD_REACTORS
330
420
330
421
102
}
330
71
100
AcDbEntity
  8
0
  6
Continuous
 62
     2
100
AcDbLine
 10
-236.5700965159452
 20
-250.2130374149706
 30
0.0
 11
-237.6197540938527
 21
-250.2130374149706
 31
0.0
  0
LINE
  5
38D
102
{ACAD_REACTORS
330
420
330
421
102
}
330
71
100
AcDbEntity
  8
0
  6
Continuous
 62
     2
100
AcDbLine
 10
-236.5700965159452
 20
-248.2935000000032
 30
0.0
 11
-235.3773038137788
 21
-248.2935000000032
 31
0.0
  0
LINE
  5
38E
102
{ACAD_REACTORS
330
420
330
421
102
}
330
71
100
AcDbEntity
  8
0
  6
Continuous
 62
     2
100
AcDbLine
 10
-236.5700965159452
 20
-249.3623333333378
 30
0.0
 11
-236.5700965159452
 21
-248.2935000000032
 31
0.0
  0
LINE
  5
38F
102
{ACAD_REACTORS
330
432
330
433
102
}
330
71
100
AcDbEntity
  8
0
  6
Continuous
 62
     2
100
AcDbLine
 10
-230.5584212970242
 20
-248.9915136054462
 30
0.0
 11
-230.5584212970242
 21
-248.2935000000032
 31
0.0
  0
LINE
  5
390
102
{ACAD_REACTORS
330
432
330
433
102
}
330
71
100
AcDbEntity
  8
0
  6
Continuous
 62
     2
100
AcDbLine
 10
-233.7087410208052
 20
-248.2935000000032
 30
0.0
 11
-230.5584212970242
 21
-248.2935000000032
 31
0.0
  0
LINE
  5
391
102
{ACAD_REACTORS
330
432
330
433
102
}
330
71
100
AcDbEntity
  8
0
  6
Continuous
 62
     2
100
AcDbLine
 10
-233.7087410208052
 20
-251.3473095238144
 30
0.0
 11
-230.5584212970242
 21
-251.3473095238144
 31
0.0
  0
LINE
  5
392
102
{ACAD_REACTORS
330
432
330
433
102
}
330
71
100
AcDbEntity
  8
0
  6
Continuous
 62
     2
100
AcDbLine
 10
-230.5584212970242
 20
-251.3473095238144
 30
0.0
 11
-230.5584212970242
 21
-250.6492959183719
 31
0.0
  0
LINE
  5
393
102
{ACAD_REACTORS
330
432
330
433
102
}
330
71
100
AcDbEntity
  8
0
  6
Continuous
 62
     2
100
AcDbLine
 10
-230.5584212970242
 20
-250.6492959183719
 30
0.0
 11
-231.8943491234519
 21
-250.6492959183719
 31
0.0
  0
LINE
  5
394
102
{ACAD_REACTORS
330
432
330
433
102
}
330
71
100
AcDbEntity
  8
0
  6
Continuous
 62
     2
100
AcDbLine
 10
-231.8943491234519
 20
-250.6492959183719
 30
0.0
 11
-231.8943491234519
 21
-250.1694115646302
 31
0.0
  0
LINE
  5
395
102
{ACAD_REACTORS
330
432
330
433
102
}
330
71
100
AcDbEntity
  8
0
  6
Continuous
 62
     2
100
AcDbLine
 10
-231.8943491234519
 20
-248.9915136054462
 30
0.0
 11
-230.5584212970242
 21
-248.9915136054462
 31
0.0
  0
LINE
  5
396
102
{ACAD_REACTORS
330
422
330
423
102
}
330
71
100
AcDbEntity
  8
0
  6
Continuous
 62
     2
100
AcDbLine
 10
-234.3755088748434
 20
-254.7064999999887
 30
0.0
 11
-234.3755088748434
 21
-253.3977244897841
 31
0.0
  0
LINE
  5
397
102
{ACAD_REACTORS
330
422
330
423
102
}
330
71
100
AcDbEntity
  8
0
  6
Continuous
 62
     2
100
AcDbLine
 10
-234.3755088748434
 20
-253.3977244897841
 30
0.0
 11
-233.1350044645905
 21
-254.7064999999887
 31
0.0
  0
LINE
  5
398
102
{ACAD_REACTORS
330
422
330
423
102
}
330
71
100
AcDbEntity
  8
0
  6
Continuous
 62
     2
100
AcDbLine
 10
-231.9422117624241
 20
-254.7064999999887
 30
0.0
 11
-231.9422117624241
 21
-251.6526904761776
 31
0.0
  0
LINE
  5
399
102
{ACAD_REACTORS
330
422
330
423
102
}
330
71
100
AcDbEntity
  8
0
  6
Continuous
 62
     2
100
AcDbLine
 10
-231.9422117624241
 20
-251.6526904761776
 30
0.0
 11
-233.1350044645905
 21
-251.6526904761776
 31
0.0
  0
LINE
  5
39A
102
{ACAD_REACTORS
330
422
330
423
102
}
330
71
100
AcDbEntity
  8
0
  6
Continuous
 62
     2
100
AcDbLine
 10
-233.1350044645905
 20
-251.6526904761776
 30
0.0
 11
-233.1350044645905
 21
-252.9614659863827
 31
0.0
  0
LINE
  5
39B
102
{ACAD_REACTORS
330
422
330
423
102
}
330
71
100
AcDbEntity
  8
0
  6
Continuous
 62
     2
100
AcDbLine
 10
-233.1350044645905
 20
-252.9614659863827
 30
0.0
 11
-234.3755088748434
 21
-251.6526904761776
 31
0.0
  0
LINE
  5
39C
102
{ACAD_REACTORS
330
424
330
425
102
}
330
71
100
AcDbEntity
  8
0
  6
Continuous
 62
     2
100
AcDbLine
 10
-229.1270700544248
 20
-250.0385340136097
 30
0.0
 11
-227.8865656441708
 21
-251.3473095238144
 31
0.0
  0
LINE
  5
39D
102
{ACAD_REACTORS
330
424
330
425
102
}
330
71
100
AcDbEntity
  8
0
  6
Continuous
 62
     2
100
AcDbLine
 10
-227.8865656441708
 20
-251.3473095238144
 30
0.0
 11
-226.6937729420042
 21
-251.3473095238144
 31
0.0
  0
LINE
  5
39E
102
{ACAD_REACTORS
330
424
330
425
102
}
330
71
100
AcDbEntity
  8
0
  6
Continuous
 62
     2
100
AcDbLine
 10
-226.6937729420042
 20
-251.3473095238144
 30
0.0
 11
-226.6937729420042
 21
-248.2935000000032
 31
0.0
  0
LINE
  5
39F
102
{ACAD_REACTORS
330
424
330
425
102
}
330
71
100
AcDbEntity
  8
0
  6
Continuous
 62
     2
100
AcDbLine
 10
-226.6937729420042
 20
-248.2935000000032
 30
0.0
 11
-227.8865656441708
 21
-248.2935000000032
 31
0.0
  0
LINE
  5
3A0
102
{ACAD_REACTORS
330
424
330
425
102
}
330
71
100
AcDbEntity
  8
0
  6
Continuous
 62
     2
100
AcDbLine
 10
-227.8865656441708
 20
-249.6022755102084
 30
0.0
 11
-229.1270700544248
 21
-248.2935000000032
 31
0.0
  0
LINE
  5
3A1
102
{ACAD_REACTORS
330
424
330
425
102
}
330
71
100
AcDbEntity
  8
0
  6
Continuous
 62
     2
100
AcDbLine
 10
-230.3198627565913
 20
-251.3473095238144
 30
0.0
 11
-229.1270700544248
 21
-251.3473095238144
 31
0.0
  0
LINE
  5
3A2
102
{ACAD_REACTORS
330
426
330
427
102
}
330
71
100
AcDbEntity
  8
0
  6
Continuous
 62
     2
100
AcDbLine
 10
-231.7990766381639
 20
-251.6526904761776
 30
0.0
 11
-231.7990766381639
 21
-252.4379557823012
 31
0.0
  0
LINE
  5
3A3
102
{ACAD_REACTORS
330
426
330
427
102
}
330
71
100
AcDbEntity
  8
0
  6
Continuous
 62
     2
100
AcDbLine
 10
-230.9879776006893
 20
-252.4379557823012
 30
0.0
 11
-230.9879776006893
 21
-254.7064999999887
 31
0.0
  0
LINE
  5
3A4
102
{ACAD_REACTORS
330
426
330
427
102
}
330
71
100
AcDbEntity
  8
0
  6
Continuous
 62
     2
100
AcDbLine
 10
-230.9879776006893
 20
-254.7064999999887
 30
0.0
 11
-229.7951848985228
 21
-254.7064999999887
 31
0.0
  0
LINE
  5
3A5
102
{ACAD_REACTORS
330
428
330
429
102
}
330
71
100
AcDbEntity
  8
0
  6
Continuous
 62
     2
100
AcDbLine
 10
-226.8456584051033
 20
-254.7064999999887
 30
0.0
 11
-227.0571384585791
 21
-254.1655394557708
 31
0.0
  0
LINE
  5
3A6
102
{ACAD_REACTORS
330
428
330
429
102
}
330
71
100
AcDbEntity
  8
0
  6
Continuous
 62
     2
100
AcDbLine
 10
-227.0031070417897
 20
-251.6526904761776
 30
0.0
 11
-225.6051539948494
 21
-254.7064999999887
 31
0.0
  0
LINE
  5
3A7
102
{ACAD_REACTORS
330
428
330
429
102
}
330
71
100
AcDbEntity
  8
0
  6
Continuous
 62
     2
100
AcDbLine
 10
-228.2436114520424
 20
-251.6526904761776
 30
0.0
 11
-227.0031070417897
 21
-251.6526904761776
 31
0.0
  0
LINE
  5
3A8
102
{ACAD_REACTORS
330
428
330
429
102
}
330
71
100
AcDbEntity
  8
0
  6
Continuous
 62
     2
100
AcDbLine
 10
-229.6415644989817
 20
-254.7064999999887
 30
0.0
 11
-228.4010600887287
 21
-254.7064999999887
 31
0.0
  0
LINE
  5
3A9
102
{ACAD_REACTORS
330
428
330
429
102
}
330
71
100
AcDbEntity
  8
0
  6
Continuous
 62
     2
100
AcDbLine
 10
-227.9235244841079
 20
-253.4849761904642
 30
0.0
 11
-227.3231940097254
 21
-253.4849761904642
 31
0.0
  0
LINE
  5
3AA
102
{ACAD_REACTORS
330
428
330
429
102
}
330
71
100
AcDbEntity
  8
0
  6
Continuous
 62
     2
100
AcDbLine
 10
-227.3231940097254
 20
-253.4849761904642
 30
0.0
 11
-227.6233592469155
 21
-252.7171612244775
 31
0.0
  0
LINE
  5
3AB
102
{ACAD_REACTORS
330
42A
330
42B
102
}
330
71
100
AcDbEntity
  8
0
  6
Continuous
 62
     2
100
AcDbLine
 10
-225.2147099913174
 20
-251.3473095238144
 30
0.0
 11
-226.4552144015703
 21
-251.3473095238144
 31
0.0
  0
LINE
  5
3AC
102
{ACAD_REACTORS
330
42C
330
42D
102
}
330
71
100
AcDbEntity
  8
0
  6
Continuous
 62
     2
100
AcDbLine
 10
-223.6927065033523
 20
-251.3473095238144
 30
0.0
 11
-225.0954307211005
 21
-251.3473095238144
 31
0.0
  0
LINE
  5
3AD
102
{ACAD_REACTORS
330
42C
330
42D
102
}
330
71
100
AcDbEntity
  8
0
  6
Continuous
 62
     2
100
AcDbLine
 10
-223.6927065033523
 20
-251.3473095238144
 30
0.0
 11
-222.9961155652866
 21
-250.5595777385207
 31
0.0
  0
LINE
  5
3AE
102
{ACAD_REACTORS
330
42C
330
42D
102
}
330
71
100
AcDbEntity
  8
0
  6
Continuous
 62
     2
100
AcDbLine
 10
-222.3949480433938
 20
-248.2935000000032
 30
0.0
 11
-220.9922238256466
 21
-248.2935000000032
 31
0.0
  0
LINE
  5
3AF
102
{ACAD_REACTORS
330
42C
330
42D
102
}
330
71
100
AcDbEntity
  8
0
  6
Continuous
 62
     2
100
AcDbLine
 10
-225.0000073049277
 20
-248.2935000000032
 30
0.0
 11
-223.6974776741602
 21
-249.7664505300394
 31
0.0
  0
LINE
  5
3B0
102
{ACAD_REACTORS
330
42C
330
42D
102
}
330
71
100
AcDbEntity
  8
0
  6
Continuous
 62
     2
100
AcDbLine
 10
-225.0954307211005
 20
-251.3473095238144
 30
0.0
 11
-223.6974776741602
 21
-249.7664505300394
 31
0.0
  0
LINE
  5
3B1
102
{ACAD_REACTORS
330
436
330
437
102
}
330
71
100
AcDbEntity
  8
0
  6
Continuous
 62
     2
100
AcDbLine
 10
-223.2346741057206
 20
-253.6594795918251
 30
0.0
 11
-223.2346741057206
 21
-254.5319965986284
 31
0.0
  0
LINE
  5
3B2
102
{ACAD_REACTORS
330
436
330
437
102
}
330
71
100
AcDbEntity
  8
0
  6
Continuous
 62
     2
100
AcDbLine
 10
-224.004331448682
 20
-252.4379557823012
 30
0.0
 11
-222.9006921491139
 21
-252.4379557823012
 31
0.0
  0
LINE
  5
3B3
102
{ACAD_REACTORS
330
438
330
439
102
}
330
71
100
AcDbEntity
  8
0
  6
Continuous
 62
     2
100
AcDbLine
 10
-239.3373755849725
 20
-253.6594795918246
 30
0.0
 11
-239.3373755849725
 21
-254.5319965986278
 31
0.0
  0
LINE
  5
3B4
102
{ACAD_REACTORS
330
438
330
439
102
}
330
71
100
AcDbEntity
  8
0
  6
Continuous
 62
     2
100
AcDbLine
 10
-239.3373755849725
 20
-252.6997108843417
 30
0.0
 11
-239.3373755849725
 21
-251.8271938775384
 31
0.0
  0
LINE
  5
3B5
330
71
100
AcDbEntity
  8
1
  6
Continuous
 62
     7
100
AcDbLine
 10
-123.4999999999886
 20
-253.500000000005
 30
0.0
 11
-216.64480452674
 21
-253.500000000005
 31
0.0
  0
LINE
  5
3B6
330
71
100
AcDbEntity
  8
1
  6
Continuous
 62
     6
100
AcDbLine
 10
-322.0448045267399
 20
-262.000000000005
 30
0.0
 11
-366.9999999999899
 21
-262.000000000005
 31
0.0
  0
LINE
  5
3B7
330
71
100
AcDbEntity
  8
1
  6
Continuous
 62
     7
100
AcDbLine
 10
-132.4184082816674
 20
-236.500000000005
 30
0.0
 11
-132.4184082816674
 21
-245.000000000005
 31
0.0
  0
LINE
  5
3B8
330
71
100
AcDbEntity
  8
1
  6
Continuous
 62
     7
100
AcDbLine
 10
-158.918408281667
 20
-236.500000000005
 30
0.0
 11
-158.918408281667
 21
-245.000000000005
 31
0.0
  0
LINE
  5
3B9
330
71
100
AcDbEntity
  8
1
  6
Continuous
 62
     7
100
AcDbLine
 10
-216.64480452674
 20
-245.000000000005
 30
0.0
 11
-216.64480452674
 21
-236.500000000005
 31
0.0
  0
LINE
  5
3BA
330
71
100
AcDbEntity
  8
1
  6
Continuous
 62
     7
100
AcDbLine
 10
-253.0448045267399
 20
-245.000000000005
 30
0.0
 11
-253.0448045267399
 21
-236.500000000005
 31
0.0
  0
LINE
  5
3BB
330
71
100
AcDbEntity
  8
1
  6
Continuous
 62
     6
100
AcDbLine
 10
-216.64480452674
 20
-245.000000000005
 30
0.0
 11
-123.4999999999882
 21
-245.000000000005
 31
0.0
  0
LINE
  5
3BC
330
71
100
AcDbEntity
  8
1
  6
Continuous
 62
     7
100
AcDbLine
 10
-188.7448045267399
 20
-253.5000000000051
 30
0.0
 11
-188.7448045267399
 21
-245.000000000005
 31
0.0
  0
LINE
  5
3BD
330
71
100
AcDbEntity
  8
1
  6
PHANTOM
 62
     2
100
AcDbLine
 10
-237.5581496401773
 20
-240.8750000000051
 30
0.0
 11
-243.0581496401773
 21
-240.8750000000051
 31
0.0
  0
LINE
  5
3BE
330
71
100
AcDbEntity
  8
1
  6
PHANTOM
 62
     2
100
AcDbLine
 10
-240.3081496401773
 20
-238.1250000000051
 30
0.0
 11
-240.3081496401773
 21
-243.6250000000051
 31
0.0
  0
LINE
  5
3BF
330
71
100
AcDbEntity
  8
1
  6
DOT_CENTER
 62
     2
100
AcDbLine
 10
-249.0581496401773
 20
-240.8750000000051
 30
0.0
 11
-243.5581496401773
 21
-240.8750000000051
 31
0.0
  0
ARC
  5
3C0
102
{ACAD_REACTORS
330
438
330
439
102
}
330
71
100
AcDbEntity
  8
0
  6
Continuous
 62
     2
100
AcDbCircle
 10
-240.6733035020903
 20
-256.4922761833393
 30
0.0
 40
4.852596863498068
100
AcDbArc
 50
74.02000874164739
 51
84.84185523037506
  0
ARC
  5
3C1
102
{ACAD_REACTORS
330
438
330
439
102
}
330
71
100
AcDbEntity
  8
0
  6
Continuous
 62
     2
100
AcDbCircle
 10
-240.0972628933366
 20
-253.336515827455
 30
0.0
 40
0.9059297849853228
100
AcDbArc
 50
71.55192388185348
 51
113.372277888129
  0
ARC
  5
3C2
102
{ACAD_REACTORS
330
438
330
439
102
}
330
71
100
AcDbEntity
  8
0
  6
Continuous
 62
     2
100
AcDbCircle
 10
-240.2537029260386
 20
-253.3846666674219
 30
0.0
 40
0.5115800601948034
100
AcDbArc
 50
208.5214732576956
 51
246.6277221118274
  0
ARC
  5
3C3
102
{ACAD_REACTORS
330
438
330
439
102
}
330
71
100
AcDbEntity
  8
0
  6
Continuous
 62
     2
100
AcDbCircle
 10
-240.0972628933366
 20
-253.0226746487119
 30
0.0
 40
0.9059297849849192
100
AcDbArc
 50
246.627722111871
 51
288.4480761181584
  0
ARC
  5
3C4
102
{ACAD_REACTORS
330
438
330
439
102
}
330
71
100
AcDbEntity
  8
0
  6
Continuous
 62
     2
100
AcDbCircle
 10
-240.5154306269974
 20
-251.7691288726747
 30
0.0
 40
2.227384008972737
100
AcDbArc
 50
288.4480761181328
 51
301.9309089499593
  0
ARC
  5
3C5
102
{ACAD_REACTORS
330
434
330
435
102
}
330
71
100
AcDbEntity
  8
0
  6
Continuous
 62
     2
100
AcDbCircle
 10
-245.7405043596042
 20
-251.0366268437607
 30
0.0
 40
0.911848150144459
100
AcDbArc
 50
295.3740086781764
 51
64.62599132180748
  0
ARC
  5
3C6
102
{ACAD_REACTORS
330
434
330
435
102
}
330
71
100
AcDbEntity
  8
0
  6
Continuous
 62
     2
100
AcDbCircle
 10
-245.2144616615163
 20
-249.3219499552861
 30
0.0
 40
0.3157169230760711
100
AcDbArc
 50
90.18896704254594
 51
180.0
  0
ARC
  5
3C7
102
{ACAD_REACTORS
330
436
330
437
102
}
330
71
100
AcDbEntity
  8
0
  6
Continuous
 62
     2
100
AcDbCircle
 10
-224.004331448682
 20
-253.3924787891273
 30
0.0
 40
0.9545230068260935
100
AcDbArc
 50
90.0
 51
109.337143219432
  0
ARC
  5
3C8
102
{ACAD_REACTORS
330
436
330
437
102
}
330
71
100
AcDbEntity
  8
0
  6
Continuous
 62
     2
100
AcDbCircle
 10
-223.7736441887043
 20
-253.1795952380834
 30
0.0
 40
0.9410597353348924
100
AcDbArc
 50
151.4785267423624
 51
208.5214732576695
  0
ARC
  5
3C9
102
{ACAD_REACTORS
330
436
330
437
102
}
330
71
100
AcDbEntity
  8
0
  6
Continuous
 62
     2
100
AcDbCircle
 10
-223.9945614140826
 20
-253.0226746487119
 30
0.0
 40
0.9059297849852801
100
AcDbArc
 50
246.6277221118183
 51
288.4480761180817
  0
ARC
  5
3CA
102
{ACAD_REACTORS
330
436
330
437
102
}
330
71
100
AcDbEntity
  8
0
  6
Continuous
 62
     2
100
AcDbCircle
 10
-224.4127291477445
 20
-251.7691288726753
 30
0.0
 40
2.227384008972746
100
AcDbArc
 50
288.4480761181335
 51
301.9309089499397
  0
ARC
  5
3CB
102
{ACAD_REACTORS
330
436
330
437
102
}
330
71
100
AcDbEntity
  8
0
  6
Continuous
 62
     2
100
AcDbCircle
 10
-224.5706020228373
 20
-249.866914292827
 30
0.0
 40
4.852596863498825
100
AcDbArc
 50
275.1581447696364
 51
285.9799912583387
  0
ARC
  5
3CC
102
{ACAD_REACTORS
330
436
330
437
102
}
330
71
100
AcDbEntity
  8
0
  6
Continuous
 62
     2
100
AcDbCircle
 10
-224.2817459281015
 20
-253.0668048760486
 30
0.0
 40
1.639695123940448
100
AcDbArc
 50
195.0618917771012
 51
275.1581447696762
  0
ARC
  5
3CD
102
{ACAD_REACTORS
330
42E
330
42F
102
}
330
71
100
AcDbEntity
  8
0
  6
Continuous
 62
     2
100
AcDbCircle
 10
-240.0099592397926
 20
-249.3488656413369
 30
0.0
 40
1.055365641333708
100
AcDbArc
 50
270.0
 51
90.0
  0
ARC
  5
3CE
102
{ACAD_REACTORS
330
434
330
435
102
}
330
71
100
AcDbEntity
  8
0
  6
Continuous
 62
     2
100
AcDbCircle
 10
-247.790010348048
 20
-253.6782275213551
 30
0.0
 40
0.3157169230756836
100
AcDbArc
 50
180.0
 51
270.0
  0
ARC
  5
3CF
102
{ACAD_REACTORS
330
434
330
435
102
}
330
71
100
AcDbEntity
  8
0
  6
Continuous
 62
     2
100
AcDbCircle
 10
-246.3141770870384
 20
-249.321772478638
 30
0.0
 40
0.315716923076593
100
AcDbArc
 50
0.0
 51
90.0
  0
ARC
  5
3D0
102
{ACAD_REACTORS
330
434
330
435
102
}
330
71
100
AcDbEntity
  8
0
  6
Continuous
 62
     2
100
AcDbCircle
 10
-246.3141770870384
 20
-249.9257970976985
 30
0.0
 40
0.3157169230761203
100
AcDbArc
 50
295.1944106485397
 51
0.0
  0
ARC
  5
3D1
102
{ACAD_REACTORS
330
434
330
435
102
}
330
71
100
AcDbEntity
  8
0
  6
Continuous
 62
     2
100
AcDbCircle
 10
-246.3141770870384
 20
-253.6782275213551
 30
0.0
 40
0.3157169230767067
100
AcDbArc
 50
270.0
 51
0.0
  0
ARC
  5
3D2
102
{ACAD_REACTORS
330
434
330
435
102
}
330
71
100
AcDbEntity
  8
0
  6
Continuous
 62
     2
100
AcDbCircle
 10
-248.3839050247945
 20
-248.7177446154052
 30
0.0
 40
0.4242446153837989
100
AcDbArc
 50
90.0
 51
180.0
  0
ARC
  5
3D3
102
{ACAD_REACTORS
330
434
330
435
102
}
330
71
100
AcDbEntity
  8
0
  6
Continuous
 62
     2
100
AcDbCircle
 10
-242.9105929340777
 20
-248.7177446154052
 30
0.0
 40
0.4242446153838841
100
AcDbArc
 50
0.0
 51
90.0
  0
ARC
  5
3D4
102
{ACAD_REACTORS
330
434
330
435
102
}
330
71
100
AcDbEntity
  8
0
  6
Continuous
 62
     2
100
AcDbCircle
 10
-242.9105929340777
 20
-254.2822553846054
 30
0.0
 40
0.4242446153832873
100
AcDbArc
 50
270.0
 51
0.0
  0
ARC
  5
3D5
102
{ACAD_REACTORS
330
432
330
433
102
}
330
71
100
AcDbEntity
  8
0
  6
Continuous
 62
     2
100
AcDbCircle
 10
-233.6922090469862
 20
-249.8204047619091
 30
0.0
 40
0.7717997786796373
100
AcDbArc
 50
321.8795802028437
 51
38.12041979715956
  0
ARC
  5
3D6
102
{ACAD_REACTORS
330
432
330
433
102
}
330
71
100
AcDbEntity
  8
0
  6
Continuous
 62
     2
100
AcDbCircle
 10
-233.49246901064
 20
-249.9771359400295
 30
0.0
 40
0.5179085730134372
100
AcDbArc
 50
218.1204197971511
 51
321.8795802028566
  0
ARC
  5
3D7
102
{ACAD_REACTORS
330
430
330
431
102
}
330
71
100
AcDbEntity
  8
0
  6
Continuous
 62
     2
100
AcDbCircle
 10
-237.1724765996002
 20
-253.1795952380834
 30
0.0
 40
1.458034083652003
100
AcDbArc
 50
297.548148175701
 51
62.45185182429896
  0
ARC
  5
3D8
102
{ACAD_REACTORS
330
430
330
431
102
}
330
71
100
AcDbEntity
  8
0
  6
Continuous
 62
     2
100
AcDbCircle
 10
-237.7343563832668
 20
-253.1795952380834
 30
0.0
 40
1.45803408365149
100
AcDbArc
 50
117.5481481756624
 51
242.4518518243375
  0
ARC
  5
3D9
102
{ACAD_REACTORS
330
430
330
431
102
}
330
71
100
AcDbEntity
  8
0
  6
Continuous
 62
     2
100
AcDbCircle
 10
-237.4534164914335
 20
-253.7181702483862
 30
0.0
 40
2.065479772208568
100
AcDbArc
 50
62.45185182430637
 51
117.5481481756664
  0
ARC
  5
3DA
102
{ACAD_REACTORS
330
430
330
431
102
}
330
71
100
AcDbEntity
  8
0
  6
Continuous
 62
     2
100
AcDbCircle
 10
-237.4534164914335
 20
-252.6410202277801
 30
0.0
 40
2.065479772208509
100
AcDbArc
 50
242.4518518243402
 51
297.5481481756871
  0
ARC
  5
3DB
102
{ACAD_REACTORS
330
432
330
433
102
}
330
71
100
AcDbEntity
  8
0
  6
Continuous
 62
     2
100
AcDbCircle
 10
-233.2927289742937
 20
-249.8204047619091
 30
0.0
 40
0.7717997786796724
100
AcDbArc
 50
141.8795802028404
 51
218.1204197971562
  0
ARC
  5
3DC
102
{ACAD_REACTORS
330
432
330
433
102
}
330
71
100
AcDbEntity
  8
0
  6
Continuous
 62
     2
100
AcDbCircle
 10
-233.49246901064
 20
-249.6636735837886
 30
0.0
 40
0.5179085730135266
100
AcDbArc
 50
38.12041979714334
 51
141.8795802028489
  0
ARC
  5
3DD
102
{ACAD_REACTORS
330
434
330
435
102
}
330
71
100
AcDbEntity
  8
0
  6
Continuous
 62
     2
100
AcDbCircle
 10
-248.3839050247945
 20
-254.2822553846054
 30
0.0
 40
0.4242446153828041
100
AcDbArc
 50
180.0
 51
270.0
  0
ARC
  5
3DE
102
{ACAD_REACTORS
330
434
330
435
102
}
330
71
100
AcDbEntity
  8
0
  6
Continuous
 62
     2
100
AcDbCircle
 10
-246.3141770870384
 20
-252.1474565898235
 30
0.0
 40
0.315716923076593
100
AcDbArc
 50
0.0
 51
64.80558935146027
  0
ARC
  5
3DF
102
{ACAD_REACTORS
330
434
330
435
102
}
330
71
100
AcDbEntity
  8
0
  6
Continuous
 62
     2
100
AcDbCircle
 10
-245.7915926394634
 20
-251.0366268437607
 30
0.0
 40
0.9118975235576147
100
AcDbArc
 50
115.1944106485282
 51
244.8055893514878
  0
ARC
  5
3E0
102
{ACAD_REACTORS
330
434
330
435
102
}
330
71
100
AcDbEntity
  8
0
  6
Continuous
 62
     2
100
AcDbCircle
 10
-247.790010348048
 20
-249.321772478638
 30
0.0
 40
0.3157169230761951
100
AcDbArc
 50
90.0
 51
180.0
  0
ARC
  5
3E1
102
{ACAD_REACTORS
330
42E
330
42F
102
}
330
71
100
AcDbEntity
  8
0
  6
Continuous
 62
     2
100
AcDbCircle
 10
-240.451431766031
 20
-249.3094696701144
 30
0.0
 40
0.3528638246711182
100
AcDbArc
 50
270.0
 51
90.0
  0
ARC
  5
3E2
102
{ACAD_REACTORS
330
432
330
433
102
}
330
71
100
AcDbEntity
  8
0
  6
Continuous
 62
     2
100
AcDbCircle
 10
-233.7087410208052
 20
-249.8204047619091
 30
0.0
 40
1.526904761905882
100
AcDbArc
 50
90.0
 51
270.0
  0
ARC
  5
3E3
102
{ACAD_REACTORS
330
436
330
437
102
}
330
71
100
AcDbEntity
  8
0
  6
Continuous
 62
     2
100
AcDbCircle
 10
-224.2817459281015
 20
-253.2923856001183
 30
0.0
 40
1.639695123940214
100
AcDbArc
 50
90.0
 51
164.938108222895
  0
ARC
  5
3E4
102
{ACAD_REACTORS
330
436
330
437
102
}
330
71
100
AcDbEntity
  8
0
  6
Continuous
 62
     2
100
AcDbCircle
 10
-224.7008737715631
 20
-253.1795952380834
 30
0.0
 40
1.205656168393002
100
AcDbArc
 50
164.9381082229028
 51
195.0618917770959
  0
ARC
  5
3E5
102
{ACAD_REACTORS
330
436
330
437
102
}
330
71
100
AcDbEntity
  8
0
  6
Continuous
 62
     2
100
AcDbCircle
 10
-224.1510014467857
 20
-253.3846666674219
 30
0.0
 40
0.5115800601960215
100
AcDbArc
 50
208.5214732576866
 51
246.6277221118449
  0
ARC
  5
3E6
102
{ACAD_REACTORS
330
436
330
437
102
}
330
71
100
AcDbEntity
  8
0
  6
Continuous
 62
     2
100
AcDbCircle
 10
-224.1510014467857
 20
-252.9745238087444
 30
0.0
 40
0.5115800601944143
100
AcDbArc
 50
109.3371432194853
 51
151.4785267424225
  0
ARC
  5
3E7
102
{ACAD_REACTORS
330
434
330
435
102
}
330
71
100
AcDbEntity
  8
0
  6
Continuous
 62
     2
100
AcDbCircle
 10
-245.2144616615163
 20
-252.7276198504242
 30
0.0
 40
0.315716923076792
100
AcDbArc
 50
180.0
 51
269.8110329574542
  0
ARC
  5
3E8
102
{ACAD_REACTORS
330
434
330
435
102
}
330
71
100
AcDbEntity
  8
0
  6
Continuous
 62
     2
100
AcDbCircle
 10
-245.2088455262063
 20
-251.0247849028552
 30
0.0
 40
2.018561131933266
100
AcDbArc
 50
269.8110329575858
 51
90.18896704241416
  0
ARC
  5
3E9
102
{ACAD_REACTORS
330
434
330
435
102
}
330
71
100
AcDbEntity
  8
0
  6
Continuous
 62
     2
100
AcDbCircle
 10
-245.2144616615163
 20
-249.9274852437929
 30
0.0
 40
0.315716923076792
100
AcDbArc
 50
180.0
 51
244.6259913216482
  0
ARC
  5
3EA
102
{ACAD_REACTORS
330
434
330
435
102
}
330
71
100
AcDbEntity
  8
0
  6
Continuous
 62
     2
100
AcDbCircle
 10
-245.2144616615163
 20
-252.1457684437291
 30
0.0
 40
0.3157169230765328
100
AcDbArc
 50
115.3740086783519
 51
180.0
  0
ARC
  5
3EB
102
{ACAD_REACTORS
330
438
330
439
102
}
330
71
100
AcDbEntity
  8
0
  6
Continuous
 62
     2
100
AcDbCircle
 10
-240.3844474073544
 20
-253.2923856001183
 30
0.0
 40
1.639695123940507
100
AcDbArc
 50
84.84185523036236
 51
164.9381082228864
  0
ARC
  5
3EC
102
{ACAD_REACTORS
330
438
330
439
102
}
330
71
100
AcDbEntity
  8
0
  6
Continuous
 62
     2
100
AcDbCircle
 10
-240.8035752508172
 20
-253.1795952380834
 30
0.0
 40
1.205656168390944
100
AcDbArc
 50
164.9381082228765
 51
195.0618917770948
  0
ARC
  5
3ED
102
{ACAD_REACTORS
330
438
330
439
102
}
330
71
100
AcDbEntity
  8
0
  6
Continuous
 62
     2
100
AcDbCircle
 10
-240.3844474073544
 20
-253.0668048760486
 30
0.0
 40
1.639695123939387
100
AcDbArc
 50
195.0618917770896
 51
275.1581447696395
  0
ARC
  5
3EE
102
{ACAD_REACTORS
330
438
330
439
102
}
330
71
100
AcDbEntity
  8
0
  6
Continuous
 62
     2
100
AcDbCircle
 10
-240.6733035020903
 20
-249.866914292827
 30
0.0
 40
4.852596863498138
100
AcDbArc
 50
275.1581447696249
 51
285.9799912583529
  0
ARC
  5
3EF
102
{ACAD_REACTORS
330
438
330
439
102
}
330
71
100
AcDbEntity
  8
0
  6
Continuous
 62
     2
100
AcDbCircle
 10
-239.8763456679583
 20
-253.1795952380834
 30
0.0
 40
0.9410597353332545
100
AcDbArc
 50
151.4785267422669
 51
208.5214732577057
  0
ARC
  5
3F0
102
{ACAD_REACTORS
330
438
330
439
102
}
330
71
100
AcDbEntity
  8
0
  6
Continuous
 62
     2
100
AcDbCircle
 10
-240.2537029260386
 20
-252.9745238087444
 30
0.0
 40
0.5115800601948779
100
AcDbArc
 50
113.3722778881992
 51
151.4785267423044
  0
ARC
  5
3F1
102
{ACAD_REACTORS
330
438
330
439
102
}
330
71
100
AcDbEntity
  8
0
  6
Continuous
 62
     2
100
AcDbCircle
 10
-240.5154306269974
 20
-254.5900616034916
 30
0.0
 40
2.227384008973478
100
AcDbArc
 50
58.06909105004071
 51
71.55192388186722
  0
ARC
  5
3F2
102
{ACAD_REACTORS
330
430
330
431
102
}
330
71
100
AcDbEntity
  8
0
  6
Continuous
 62
     2
100
AcDbCircle
 10
-237.4534164914335
 20
-253.0228640599629
 30
0.0
 40
0.5179085730132998
100
AcDbArc
 50
38.12041979714704
 51
141.8795802028588
  0
ARC
  5
3F3
102
{ACAD_REACTORS
330
430
330
431
102
}
330
71
100
AcDbEntity
  8
0
  6
Continuous
 62
     2
100
AcDbCircle
 10
-237.2536764550874
 20
-253.1795952380834
 30
0.0
 40
0.7717997786794633
100
AcDbArc
 50
141.8795802028363
 51
218.1204197971687
  0
ARC
  5
3F4
102
{ACAD_REACTORS
330
430
330
431
102
}
330
71
100
AcDbEntity
  8
0
  6
Continuous
 62
     2
100
AcDbCircle
 10
-237.4534164914335
 20
-253.3363264162034
 30
0.0
 40
0.5179085730137354
100
AcDbArc
 50
218.1204197971931
 51
321.879580202801
  0
ARC
  5
3F5
102
{ACAD_REACTORS
330
430
330
431
102
}
330
71
100
AcDbEntity
  8
0
  6
Continuous
 62
     2
100
AcDbCircle
 10
-237.6531565277799
 20
-253.1795952380834
 30
0.0
 40
0.7717997786796947
100
AcDbArc
 50
321.8795802028417
 51
38.12041979715329
  0
CIRCLE
  5
3F6
330
71
100
AcDbEntity
  8
1
  6
Continuous
 62
     2
100
AcDbCircle
 10
-240.3081496401773
 20
-240.8750000000051
 30
0.0
 40
2.5
  0
CIRCLE
  5
3F7
330
71
100
AcDbEntity
  8
1
  6
Continuous
 62
     2
100
AcDbCircle
 10
-240.3081496401773
 20
-240.8750000000051
 30
0.0
 40
1.249999999999915
  0
CIRCLE
  5
3F8
102
{ACAD_REACTORS
330
434
330
435
102
}
330
71
100
AcDbEntity
  8
0
  6
Continuous
 62
     2
100
AcDbCircle
 10
-245.764319374277
 20
-251.0366268437607
 30
0.0
 40
0.4709789327785074
  0
MTEXT
  5
3F9
330
71
100
AcDbEntity
  8
1
 62
     3
100
AcDbMText
 10
-410.4949322139181
 20
-75.20869184470621
 30
0.0
 40
1.8
 41
0.0
 71
     7
 72
     1
  3
Weitergabe sowie Vervielf\U+00e4ltigung dieses Dokuments, Verwertung und \PMitteilung seines Inhalts sind verboten, soweit nicht ausdr\U+00fccklich gestattet. \PZuwiderhandlungen verpflichten zu Schadenersatz. Alle Rechte f\U+00fcr den Fall\Pder Pat
  1
ent-, Gebrauchsmuster- oder Designeintragung vorbehalten.
  7
CONVERTER_11
 73
     1
 44
0.99639855942377
  0
MTEXT
  5
3FA
330
71
100
AcDbEntity
  8
1
 62
     3
100
AcDbMText
 10
-227.64182237513
 20
-75.20869184470621
 30
0.0
 40
1.8
 41
0.0
 71
     7
 72
     1
  3
Transfer or duplication of this document as well as the utilisation or\Pcommunication of its content are not permitted unless express consent\Pis granted. Violations give rise to claims for damages. All rights reserved\Pin case of patent, utility mo
  1
del or design patent registrations.
  7
CONVERTER_11
 73
     1
 44
0.99639855942377
  0
TEXT
  5
3FB
330
71
100
AcDbEntity
  8
1
 62
     2
100
AcDbText
 10
-233.8448045267401
 20
-260.7590172149966
 30
0.0
 40
1.8
  1
of
 41
0.9
  7
CONVERTER_11
100
AcDbText
  0
TEXT
  5
3FC
330
71
100
AcDbEntity
  8
1
 62
     2
100
AcDbText
 10
-252.0448045267399
 20
-260.7590172149967
 30
0.0
 40
1.8
  1
page
 41
0.9
  7
CONVERTER_11
100
AcDbText
  0
TEXT
  5
3FD
330
71
100
AcDbEntity
  8
1
 62
     2
100
AcDbText
 10
-243.3985395563979
 20
-260.799248653807
 30
0.0
 40
1.8
  1
1
 41
0.9
  7
CONVERTER_11
100
AcDbText
  0
TEXT
  5
3FE
330
71
100
AcDbEntity
  8
1
 62
     2
100
AcDbText
 10
-228.6094957169264
 20
-260.7500000000051
 30
0.0
 40
1.8
  1
1
 41
0.9
  7
CONVERTER_11
100
AcDbText
  0
MTEXT
  5
400
330
71
100
AcDbEntity
  8
1
 62
     7
100
AcDbMText
 10
-170.0724022633644
 20
-258.7500000000048
 30
0.0
 40
3.0
 41
0.0
 71
     5
 72
     1
  1
UK 10,3-HESI 1000V
  7
CONVERTER_12
 73
     1
 44
1.20048019207683
  0
MTEXT
  5
401
330
71
100
AcDbEntity
  8
1
 62
     2
100
AcDbMText
 10
-215.64480452674
 20
-254.500000000005
 30
0.0
 40
1.8
 41
0.0
 71
     1
 72
     1
  1
description
  7
CONVERTER_11
 73
     1
 44
1.20048019207683
  0
MTEXT
  5
402
330
71
100
AcDbEntity
  8
1
 62
     3
100
AcDbMText
 10
-226.84480452674
 20
-240.875000000005
 30
0.0
 40
2.5
 41
0.0
 71
     5
 72
     1
  1
DIN A4
  7
CONVERTER_11
 73
     1
 44
1.20048019207683
  0
MTEXT
  5
403
330
71
100
AcDbEntity
  8
1
 62
     7
100
AcDbMText
 10
-412.999999999989
 20
-239.500000000005
 30
0.0
 40
3.5
 41
0.0
 71
     5
 72
     1
  1
D
  7
CONVERTER_11
 73
     1
 44
1.20048019207683
  0
MTEXT
  5
404
330
71
100
AcDbEntity
  8
1
 62
     7
100
AcDbMText
 10
-412.999999999989
 20
-187.000000000005
 30
0.0
 40
3.5
 41
0.0
 71
     5
 72
     1
  1
C
  7
CONVERTER_11
 73
     1
 44
1.20048019207683
  0
MTEXT
  5
405
330
71
100
AcDbEntity
  8
1
 62
     7
100
AcDbMText
 10
-412.999999999989
 20
-137.000000000005
 30
0.0
 40
3.5
 41
0.0
 71
     5
 72
     1
  1
B
  7
CONVERTER_11
 73
     1
 44
1.20048019207683
  0
MTEXT
  5
406
330
71
100
AcDbEntity
  8
1
 62
     7
100
AcDbMText
 10
-412.999999999989
 20
-84.500000000005
 30
0.0
 40
3.5
 41
0.0
 71
     5
 72
     1
  1
A
  7
CONVERTER_11
 73
     1
 44
1.20048019207683
  0
MTEXT
  5
407
330
71
100
AcDbEntity
  8
1
 62
     7
100
AcDbMText
 10
-142.7499999999907
 20
-264.5000000000051
 30
0.0
 40
3.5
 41
0.0
 71
     5
 72
     1
  1
6
  7
CONVERTER_11
 73
     1
 44
1.20048019207683
  0
MTEXT
  5
408
330
71
100
AcDbEntity
  8
1
 62
     7
100
AcDbMText
 10
-191.9999999999899
 20
-264.5000000000051
 30
0.0
 40
3.5
 41
0.0
 71
     5
 72
     1
  1
5
  7
CONVERTER_11
 73
     1
 44
1.20048019207683
  0
MTEXT
  5
409
330
71
100
AcDbEntity
  8
1
 62
     7
100
AcDbMText
 10
-241.99999999999
 20
-264.5000000000051
 30
0.0
 40
3.5
 41
0.0
 71
     5
 72
     1
  1
4
  7
CONVERTER_11
 73
     1
 44
1.20048019207683
  0
MTEXT
  5
40A
330
71
100
AcDbEntity
  8
1
 62
     7
100
AcDbMText
 10
-291.9999999999899
 20
-264.5000000000051
 30
0.0
 40
3.5
 41
0.0
 71
     5
 72
     1
  1
3
  7
CONVERTER_11
 73
     1
 44
1.20048019207683
  0
MTEXT
  5
40B
330
71
100
AcDbEntity
  8
1
 62
     7
100
AcDbMText
 10
-341.9999999999899
 20
-264.5000000000051
 30
0.0
 40
3.5
 41
0.0
 71
     5
 72
     1
  1
2
  7
CONVERTER_11
 73
     1
 44
1.20048019207683
  0
MTEXT
  5
40C
330
71
100
AcDbEntity
  8
1
 62
     7
100
AcDbMText
 10
-391.2499999999895
 20
-264.5000000000051
 30
0.0
 40
3.5
 41
0.0
 71
     5
 72
     1
  1
1
  7
CONVERTER_11
 73
     1
 44
1.20048019207683
  0
MTEXT
  5
40D
330
71
100
AcDbEntity
  8
1
 62
     7
100
AcDbMText
 10
-120.9999999999909
 20
-239.500000000005
 30
0.0
 40
3.5
 41
0.0
 71
     5
 72
     1
  1
D
  7
CONVERTER_11
 73
     1
 44
1.20048019207683
  0
MTEXT
  5
40E
330
71
100
AcDbEntity
  8
1
 62
     7
100
AcDbMText
 10
-120.9999999999909
 20
-137.0000000000031
 30
0.0
 40
3.5
 41
0.0
 71
     5
 72
     1
  1
B
  7
CONVERTER_11
 73
     1
 44
1.20048019207683
  0
MTEXT
  5
40F
330
71
100
AcDbEntity
  8
1
 62
     7
100
AcDbMText
 10
-120.9999999999909
 20
-84.500000000005
 30
0.0
 40
3.5
 41
0.0
 71
     5
 72
     1
  1
A
  7
CONVERTER_11
 73
     1
 44
1.20048019207683
  0
MTEXT
  5
410
330
71
100
AcDbEntity
  8
1
 62
     7
100
AcDbMText
 10
-120.9999999999909
 20
-187.0000000000031
 30
0.0
 40
3.5
 41
0.0
 71
     5
 72
     1
  1
C
  7
CONVERTER_11
 73
     1
 44
1.20048019207683
  0
MTEXT
  5
411
330
71
100
AcDbEntity
  8
1
 62
     2
100
AcDbMText
 10
-287.4828192517874
 20
-249.2500000000051
 30
0.0
 40
2.0
 41
0.0
 71
     5
 72
     1
  1
General Information\P- Simplified representation\P- Document excluded from change process\P- Linear dimensions [mm]
  7
CONVERTER_11
 73
     1
 44
1.20048019207683
  0
TEXT
  5
412
330
71
100
AcDbEntity
  8
1
 62
     7
100
AcDbText
 10
-215.1448045267402
 20
-252.2000000000051
 30
0.0
 40
2.5
  1
3211236
 41
0.81
  7
CONVERTER_12
100
AcDbText
  0
MTEXT
  5
413
330
71
100
AcDbEntity
  8
1
 62
     2
100
AcDbMText
 10
-215.5448045267399
 20
-246.000000000005
 30
0.0
 40
1.8
 41
0.0
 71
     1
 72
     1
  1
ident.-No.
  7
CONVERTER_11
 73
     1
 44
1.20048019207683
  0
MTEXT
  5
414
330
71
100
AcDbEntity
  8
1
 62
     2
100
AcDbMText
 10
-131.3184082816672
 20
-237.500000000005
 30
0.0
 40
1.8
 41
0.0
 71
     1
 72
     1
  1
scale
  7
CONVERTER_11
 73
     1
 44
1.20048019207683
  0
MTEXT
  5
416
330
71
100
AcDbEntity
  8
1
 62
     3
100
AcDbMText
 10
-127.9592041408276
 20
-243.7000000000049
 30
0.0
 40
2.5
 41
0.0
 71
     8
 72
     1
  1
1:1
  7
CONVERTER_13
 73
     1
 44
1.32052821128451
  0
TEXT
  5
417
330
71
100
AcDbEntity
  8
1
 62
     7
100
AcDbText
 10
-215.5448045267399
 20
-243.7000000000051
 30
0.0
 40
2.5
  1
00547720
 41
0.81
  7
CONVERTER_12
100
AcDbText
  0
MTEXT
  5
419
330
71
100
AcDbEntity
  8
1
 62
     2
100
AcDbMText
 10
-215.5448045267399
 20
-237.500000000005
 30
0.0
 40
1.8
 41
0.0
 71
     1
 72
     1
  1
document-No. / RI
  7
CONVERTER_14
 73
     1
 44
1.32052821128451
  0
TEXT
  5
41A
330
71
100
AcDbEntity
  8
1
 62
     3
100
AcDbText
 10
-187.7448045267399
 20
-252.2000000000051
 30
0.0
 40
2.5
  1
TECDOC 2D_Productdrawing
 41
0.81
  7
CONVERTER_12
100
AcDbText
  0
MTEXT
  5
41B
330
71
100
AcDbEntity
  8
1
 62
     2
100
AcDbMText
 10
-187.7448045267399
 20
-246.0000000000051
 30
0.0
 40
1.8
 41
0.0
 71
     1
 72
     1
  1
document-type
  7
CONVERTER_11
 73
     1
 44
1.20048019207683
  0
MTEXT
  5
41C
330
71
100
AcDbEntity
  8
1
 62
     2
100
AcDbMText
 10
-157.918408281667
 20
-237.5000000000051
 30
0.0
 40
1.8
 41
0.0
 71
     1
 72
     1
  1
date
  7
CONVERTER_11
 73
     1
 44
1.32052821128451
  0
TEXT
  5
41D
330
71
100
AcDbEntity
  8
1
 62
     3
100
AcDbText
 10
-157.918408281667
 20
-243.7000000000051
 30
0.0
 40
2.5
  1
07.02.2018
 41
0.81
  7
CONVERTER_12
100
AcDbText
  0
TEXT
  5
41E
330
71
100
AcDbEntity
  8
1
 62
     7
100
AcDbText
 10
-195.5148923076841
 20
-243.7000000000051
 30
0.0
 40
2.5
  1
01
 41
0.81
  7
CONVERTER_12
100
AcDbText
  0
TEXT
  5
41F
330
71
100
AcDbEntity
  8
1
 62
     7
100
AcDbText
 10
-197.6712568047261
 20
-243.7000000000051
 30
0.0
 40
2.5
  1
/
 41
0.9
  7
CONVERTER_11
100
AcDbText
  0
HATCH
  5
420
330
71
100
AcDbEntity
  8
1
  6
Continuous
 62
     2
100
AcDbHatch
 10
0.0
 20
0.0
 30
0.0
210
0.0
220
0.0
230
1.0
  2
_USER
 70
     0
 71
     1
 91
        1
 92
        1
 93
       12
 72
     1
 10
-235.3773038137788
 20
-251.3473095238144
 11
-236.5700965159452
 21
-251.3473095238144
 72
     1
 10
-236.5700965159452
 20
-251.3473095238144
 11
-236.5700965159452
 21
-250.2130374149706
 72
     1
 10
-236.5700965159452
 20
-250.2130374149706
 11
-237.6197540938527
 21
-250.2130374149706
 72
     1
 10
-237.6197540938527
 20
-250.2130374149706
 11
-237.6197540938527
 21
-251.3473095238144
 72
     1
 10
-237.6197540938527
 20
-251.3473095238144
 11
-238.8125467960193
 21
-251.3473095238144
 72
     1
 10
-238.8125467960193
 20
-251.3473095238144
 11
-238.8125467960193
 21
-248.2935000000032
 72
     1
 10
-238.8125467960193
 20
-248.2935000000032
 11
-237.6197540938527
 21
-248.2935000000032
 72
     1
 10
-237.6197540938527
 20
-248.2935000000032
 11
-237.6197540938527
 21
-249.3623333333378
 72
     1
 10
-237.6197540938527
 20
-249.3623333333378
 11
-236.5700965159452
 21
-249.3623333333378
 72
     1
 10
-236.5700965159452
 20
-249.3623333333378
 11
-236.5700965159452
 21
-248.2935000000032
 72
     1
 10
-236.5700965159452
 20
-248.2935000000032
 11
-235.3773038137788
 21
-248.2935000000032
 72
     1
 10
-235.3773038137788
 20
-248.2935000000032
 11
-235.3773038137788
 21
-251.3473095238144
 97
       12
330
38D
330
38E
330
378
330
377
330
376
330
38A
330
375
330
38B
330
38C
330
374
330
373
330
372
 75
     1
 76
     0
 52
45.0
 41
0.1
 77
     0
 78
     1
 53
45.0
 43
0.0
 44
0.0
 45
-0.0707106781186548
 46
0.0707106781186548
 79
     0
 98
        1
 10
0.0
 20
0.0
  0
HATCH
  5
421
330
71
100
AcDbEntity
  8
1
  6
Continuous
 62
     2
100
AcDbHatch
 10
0.0
 20
0.0
 30
0.0
210
0.0
220
0.0
230
1.0
  2
_USER
 70
     0
 71
     1
 91
        1
 92
        1
 93
       12
 72
     1
 10
-235.3773038137788
 20
-251.3473095238144
 11
-236.5700965159452
 21
-251.3473095238144
 72
     1
 10
-236.5700965159452
 20
-251.3473095238144
 11
-236.5700965159452
 21
-250.2130374149706
 72
     1
 10
-236.5700965159452
 20
-250.2130374149706
 11
-237.6197540938527
 21
-250.2130374149706
 72
     1
 10
-237.6197540938527
 20
-250.2130374149706
 11
-237.6197540938527
 21
-251.3473095238144
 72
     1
 10
-237.6197540938527
 20
-251.3473095238144
 11
-238.8125467960193
 21
-251.3473095238144
 72
     1
 10
-238.8125467960193
 20
-251.3473095238144
 11
-238.8125467960193
 21
-248.2935000000032
 72
     1
 10
-238.8125467960193
 20
-248.2935000000032
 11
-237.6197540938527
 21
-248.2935000000032
 72
     1
 10
-237.6197540938527
 20
-248.2935000000032
 11
-237.6197540938527
 21
-249.3623333333378
 72
     1
 10
-237.6197540938527
 20
-249.3623333333378
 11
-236.5700965159452
 21
-249.3623333333378
 72
     1
 10
-236.5700965159452
 20
-249.3623333333378
 11
-236.5700965159452
 21
-248.2935000000032
 72
     1
 10
-236.5700965159452
 20
-248.2935000000032
 11
-235.3773038137788
 21
-248.2935000000032
 72
     1
 10
-235.3773038137788
 20
-248.2935000000032
 11
-235.3773038137788
 21
-251.3473095238144
 97
       12
330
38D
330
38E
330
378
330
377
330
376
330
38A
330
375
330
38B
330
38C
330
374
330
373
330
372
 75
     1
 76
     0
 52
45.0
 41
0.1
 77
     0
 78
     1
 53
45.0
 43
0.0
 44
0.0
 45
-0.0707106781186548
 46
0.0707106781186548
 79
     0
 98
        1
 10
0.0
 20
0.0
  0
HATCH
  5
422
330
71
100
AcDbEntity
  8
1
  6
Continuous
 62
     2
100
AcDbHatch
 10
0.0
 20
0.0
 30
0.0
210
0.0
220
0.0
230
1.0
  2
_USER
 70
     0
 71
     1
 91
        1
 92
        1
 93
       10
 72
     1
 10
-233.1350044645905
 20
-252.9614659863827
 11
-234.3755088748434
 21
-251.6526904761776
 72
     1
 10
-234.3755088748434
 20
-251.6526904761776
 11
-235.568301577011
 21
-251.6526904761776
 72
     1
 10
-235.568301577011
 20
-251.6526904761776
 11
-235.568301577011
 21
-254.7064999999887
 72
     1
 10
-235.568301577011
 20
-254.7064999999887
 11
-234.3755088748434
 21
-254.7064999999887
 72
     1
 10
-234.3755088748434
 20
-254.7064999999887
 11
-234.3755088748434
 21
-253.3977244897841
 72
     1
 10
-234.3755088748434
 20
-253.3977244897841
 11
-233.1350044645905
 21
-254.7064999999887
 72
     1
 10
-233.1350044645905
 20
-254.7064999999887
 11
-231.9422117624241
 21
-254.7064999999887
 72
     1
 10
-231.9422117624241
 20
-254.7064999999887
 11
-231.9422117624241
 21
-251.6526904761776
 72
     1
 10
-231.9422117624241
 20
-251.6526904761776
 11
-233.1350044645905
 21
-251.6526904761776
 72
     1
 10
-233.1350044645905
 20
-251.6526904761776
 11
-233.1350044645905
 21
-252.9614659863827
 97
       10
330
39B
330
36B
330
36A
330
36D
330
396
330
397
330
36C
330
398
330
399
330
39A
 75
     1
 76
     0
 52
45.0
 41
0.1
 77
     0
 78
     1
 53
45.0
 43
0.0
 44
0.0
 45
-0.0707106781186548
 46
0.0707106781186548
 79
     0
 98
        1
 10
0.0
 20
0.0
  0
HATCH
  5
423
330
71
100
AcDbEntity
  8
1
  6
Continuous
 62
     2
100
AcDbHatch
 10
0.0
 20
0.0
 30
0.0
210
0.0
220
0.0
230
1.0
  2
_USER
 70
     0
 71
     1
 91
        1
 92
        1
 93
       10
 72
     1
 10
-233.1350044645905
 20
-252.9614659863827
 11
-234.3755088748434
 21
-251.6526904761776
 72
     1
 10
-234.3755088748434
 20
-251.6526904761776
 11
-235.568301577011
 21
-251.6526904761776
 72
     1
 10
-235.568301577011
 20
-251.6526904761776
 11
-235.568301577011
 21
-254.7064999999887
 72
     1
 10
-235.568301577011
 20
-254.7064999999887
 11
-234.3755088748434
 21
-254.7064999999887
 72
     1
 10
-234.3755088748434
 20
-254.7064999999887
 11
-234.3755088748434
 21
-253.3977244897841
 72
     1
 10
-234.3755088748434
 20
-253.3977244897841
 11
-233.1350044645905
 21
-254.7064999999887
 72
     1
 10
-233.1350044645905
 20
-254.7064999999887
 11
-231.9422117624241
 21
-254.7064999999887
 72
     1
 10
-231.9422117624241
 20
-254.7064999999887
 11
-231.9422117624241
 21
-251.6526904761776
 72
     1
 10
-231.9422117624241
 20
-251.6526904761776
 11
-233.1350044645905
 21
-251.6526904761776
 72
     1
 10
-233.1350044645905
 20
-251.6526904761776
 11
-233.1350044645905
 21
-252.9614659863827
 97
       10
330
39B
330
36B
330
36A
330
36D
330
396
330
397
330
36C
330
398
330
399
330
39A
 75
     1
 76
     0
 52
45.0
 41
0.1
 77
     0
 78
     1
 53
45.0
 43
0.0
 44
0.0
 45
-0.0707106781186548
 46
0.0707106781186548
 79
     0
 98
        1
 10
0.0
 20
0.0
  0
HATCH
  5
424
330
71
100
AcDbEntity
  8
1
  6
Continuous
 62
     2
100
AcDbHatch
 10
0.0
 20
0.0
 30
0.0
210
0.0
220
0.0
230
1.0
  2
_USER
 70
     0
 71
     1
 91
        1
 92
        1
 93
       10
 72
     1
 10
-227.8865656441708
 20
-249.6022755102084
 11
-229.1270700544248
 21
-248.2935000000032
 72
     1
 10
-229.1270700544248
 20
-248.2935000000032
 11
-230.3198627565913
 21
-248.2935000000032
 72
     1
 10
-230.3198627565913
 20
-248.2935000000032
 11
-230.3198627565913
 21
-251.3473095238144
 72
     1
 10
-230.3198627565913
 20
-251.3473095238144
 11
-229.1270700544248
 21
-251.3473095238144
 72
     1
 10
-229.1270700544248
 20
-251.3473095238144
 11
-229.1270700544248
 21
-250.0385340136097
 72
     1
 10
-229.1270700544248
 20
-250.0385340136097
 11
-227.8865656441708
 21
-251.3473095238144
 72
     1
 10
-227.8865656441708
 20
-251.3473095238144
 11
-226.6937729420042
 21
-251.3473095238144
 72
     1
 10
-226.6937729420042
 20
-251.3473095238144
 11
-226.6937729420042
 21
-248.2935000000032
 72
     1
 10
-226.6937729420042
 20
-248.2935000000032
 11
-227.8865656441708
 21
-248.2935000000032
 72
     1
 10
-227.8865656441708
 20
-248.2935000000032
 11
-227.8865656441708
 21
-249.6022755102084
 97
       10
330
3A0
330
368
330
367
330
3A1
330
366
330
39C
330
39D
330
39E
330
39F
330
369
 75
     1
 76
     0
 52
45.0
 41
0.1
 77
     0
 78
     1
 53
45.0
 43
0.0
 44
0.0
 45
-0.0707106781186548
 46
0.0707106781186548
 79
     0
 98
        1
 10
0.0
 20
0.0
  0
HATCH
  5
425
330
71
100
AcDbEntity
  8
1
  6
Continuous
 62
     2
100
AcDbHatch
 10
0.0
 20
0.0
 30
0.0
210
0.0
220
0.0
230
1.0
  2
_USER
 70
     0
 71
     1
 91
        1
 92
        1
 93
       10
 72
     1
 10
-227.8865656441708
 20
-249.6022755102084
 11
-229.1270700544248
 21
-248.2935000000032
 72
     1
 10
-229.1270700544248
 20
-248.2935000000032
 11
-230.3198627565913
 21
-248.2935000000032
 72
     1
 10
-230.3198627565913
 20
-248.2935000000032
 11
-230.3198627565913
 21
-251.3473095238144
 72
     1
 10
-230.3198627565913
 20
-251.3473095238144
 11
-229.1270700544248
 21
-251.3473095238144
 72
     1
 10
-229.1270700544248
 20
-251.3473095238144
 11
-229.1270700544248
 21
-250.0385340136097
 72
     1
 10
-229.1270700544248
 20
-250.0385340136097
 11
-227.8865656441708
 21
-251.3473095238144
 72
     1
 10
-227.8865656441708
 20
-251.3473095238144
 11
-226.6937729420042
 21
-251.3473095238144
 72
     1
 10
-226.6937729420042
 20
-251.3473095238144
 11
-226.6937729420042
 21
-248.2935000000032
 72
     1
 10
-226.6937729420042
 20
-248.2935000000032
 11
-227.8865656441708
 21
-248.2935000000032
 72
     1
 10
-227.8865656441708
 20
-248.2935000000032
 11
-227.8865656441708
 21
-249.6022755102084
 97
       10
330
3A0
330
368
330
367
330
3A1
330
366
330
39C
330
39D
330
39E
330
39F
330
369
 75
     1
 76
     0
 52
45.0
 41
0.1
 77
     0
 78
     1
 53
45.0
 43
0.0
 44
0.0
 45
-0.0707106781186548
 46
0.0707106781186548
 79
     0
 98
        1
 10
0.0
 20
0.0
  0
HATCH
  5
426
330
71
100
AcDbEntity
  8
1
  6
Continuous
 62
     2
100
AcDbHatch
 10
0.0
 20
0.0
 30
0.0
210
0.0
220
0.0
230
1.0
  2
_USER
 70
     0
 71
     1
 91
        1
 92
        1
 93
        8
 72
     1
 10
-228.9840858610503
 20
-251.6526904761776
 11
-231.7990766381639
 21
-251.6526904761776
 72
     1
 10
-231.7990766381639
 20
-251.6526904761776
 11
-231.7990766381639
 21
-252.4379557823012
 72
     1
 10
-231.7990766381639
 20
-252.4379557823012
 11
-230.9879776006893
 21
-252.4379557823012
 72
     1
 10
-230.9879776006893
 20
-252.4379557823012
 11
-230.9879776006893
 21
-254.7064999999887
 72
     1
 10
-230.9879776006893
 20
-254.7064999999887
 11
-229.7951848985228
 21
-254.7064999999887
 72
     1
 10
-229.7951848985228
 20
-254.7064999999887
 11
-229.7951848985228
 21
-252.4379557823012
 72
     1
 10
-229.7951848985228
 20
-252.4379557823012
 11
-228.9840858610503
 21
-252.4379557823012
 72
     1
 10
-228.9840858610503
 20
-252.4379557823012
 11
-228.9840858610503
 21
-251.6526904761776
 97
        8
330
362
330
3A2
330
361
330
3A3
330
3A4
330
365
330
364
330
363
 75
     1
 76
     0
 52
45.0
 41
0.1
 77
     0
 78
     1
 53
45.0
 43
0.0
 44
0.0
 45
-0.0707106781186548
 46
0.0707106781186548
 79
     0
 98
        1
 10
0.0
 20
0.0
  0
HATCH
  5
427
330
71
100
AcDbEntity
  8
1
  6
Continuous
 62
     2
100
AcDbHatch
 10
0.0
 20
0.0
 30
0.0
210
0.0
220
0.0
230
1.0
  2
_USER
 70
     0
 71
     1
 91
        1
 92
        1
 93
        8
 72
     1
 10
-228.9840858610503
 20
-251.6526904761776
 11
-231.7990766381639
 21
-251.6526904761776
 72
     1
 10
-231.7990766381639
 20
-251.6526904761776
 11
-231.7990766381639
 21
-252.4379557823012
 72
     1
 10
-231.7990766381639
 20
-252.4379557823012
 11
-230.9879776006893
 21
-252.4379557823012
 72
     1
 10
-230.9879776006893
 20
-252.4379557823012
 11
-230.9879776006893
 21
-254.7064999999887
 72
     1
 10
-230.9879776006893
 20
-254.7064999999887
 11
-229.7951848985228
 21
-254.7064999999887
 72
     1
 10
-229.7951848985228
 20
-254.7064999999887
 11
-229.7951848985228
 21
-252.4379557823012
 72
     1
 10
-229.7951848985228
 20
-252.4379557823012
 11
-228.9840858610503
 21
-252.4379557823012
 72
     1
 10
-228.9840858610503
 20
-252.4379557823012
 11
-228.9840858610503
 21
-251.6526904761776
 97
        8
330
362
330
3A2
330
361
330
3A3
330
3A4
330
365
330
364
330
363
 75
     1
 76
     0
 52
45.0
 41
0.1
 77
     0
 78
     1
 53
45.0
 43
0.0
 44
0.0
 45
-0.0707106781186548
 46
0.0707106781186548
 79
     0
 98
        1
 10
0.0
 20
0.0
  0
HATCH
  5
428
330
71
100
AcDbEntity
  8
1
  6
Continuous
 62
     2
100
AcDbHatch
 10
0.0
 20
0.0
 30
0.0
210
0.0
220
0.0
230
1.0
  2
_USER
 70
     0
 71
     1
 91
        2
 92
        1
 93
        8
 72
     1
 10
-226.8456584051033
 20
-254.7064999999887
 11
-227.0571384585791
 21
-254.1655394557708
 72
     1
 10
-227.0571384585791
 20
-254.1655394557708
 11
-228.1895800352529
 21
-254.1655394557708
 72
     1
 10
-228.1895800352529
 20
-254.1655394557708
 11
-228.4010600887287
 21
-254.7064999999887
 72
     1
 10
-228.4010600887287
 20
-254.7064999999887
 11
-229.6415644989817
 21
-254.7064999999887
 72
     1
 10
-229.6415644989817
 20
-254.7064999999887
 11
-228.2436114520424
 21
-251.6526904761776
 72
     1
 10
-228.2436114520424
 20
-251.6526904761776
 11
-227.0031070417897
 21
-251.6526904761776
 72
     1
 10
-227.0031070417897
 20
-251.6526904761776
 11
-225.6051539948494
 21
-254.7064999999887
 72
     1
 10
-225.6051539948494
 20
-254.7064999999887
 11
-226.8456584051033
 21
-254.7064999999887
 97
        8
330
3A6
330
3A7
330
35E
330
3A8
330
35D
330
360
330
3A5
330
35F
 92
       16
 93
        3
 72
     1
 10
-227.9235244841079
 20
-253.4849761904642
 11
-227.6233592469155
 21
-252.7171612244775
 72
     1
 10
-227.6233592469155
 20
-252.7171612244775
 11
-227.3231940097254
 21
-253.4849761904642
 72
     1
 10
-227.3231940097254
 20
-253.4849761904642
 11
-227.9235244841079
 21
-253.4849761904642
 97
        3
330
35C
330
3AA
330
3A9
 75
     1
 76
     0
 52
45.0
 41
0.1
 77
     0
 78
     1
 53
45.0
 43
0.0
 44
0.0
 45
-0.0707106781186548
 46
0.0707106781186548
 79
     0
 98
        1
 10
0.0
 20
0.0
  0
HATCH
  5
429
330
71
100
AcDbEntity
  8
1
  6
Continuous
 62
     2
100
AcDbHatch
 10
0.0
 20
0.0
 30
0.0
210
0.0
220
0.0
230
1.0
  2
_USER
 70
     0
 71
     1
 91
        2
 92
        1
 93
        8
 72
     1
 10
-226.8456584051033
 20
-254.7064999999887
 11
-227.0571384585791
 21
-254.1655394557708
 72
     1
 10
-227.0571384585791
 20
-254.1655394557708
 11
-228.1895800352529
 21
-254.1655394557708
 72
     1
 10
-228.1895800352529
 20
-254.1655394557708
 11
-228.4010600887287
 21
-254.7064999999887
 72
     1
 10
-228.4010600887287
 20
-254.7064999999887
 11
-229.6415644989817
 21
-254.7064999999887
 72
     1
 10
-229.6415644989817
 20
-254.7064999999887
 11
-228.2436114520424
 21
-251.6526904761776
 72
     1
 10
-228.2436114520424
 20
-251.6526904761776
 11
-227.0031070417897
 21
-251.6526904761776
 72
     1
 10
-227.0031070417897
 20
-251.6526904761776
 11
-225.6051539948494
 21
-254.7064999999887
 72
     1
 10
-225.6051539948494
 20
-254.7064999999887
 11
-226.8456584051033
 21
-254.7064999999887
 97
        8
330
3A6
330
3A7
330
35E
330
3A8
330
35D
330
360
330
3A5
330
35F
 92
       16
 93
        3
 72
     1
 10
-227.9235244841079
 20
-253.4849761904642
 11
-227.6233592469155
 21
-252.7171612244775
 72
     1
 10
-227.6233592469155
 20
-252.7171612244775
 11
-227.3231940097254
 21
-253.4849761904642
 72
     1
 10
-227.3231940097254
 20
-253.4849761904642
 11
-227.9235244841079
 21
-253.4849761904642
 97
        3
330
35C
330
3AA
330
3A9
 75
     1
 76
     0
 52
45.0
 41
0.1
 77
     0
 78
     1
 53
45.0
 43
0.0
 44
0.0
 45
-0.0707106781186548
 46
0.0707106781186548
 79
     0
 98
        1
 10
0.0
 20
0.0
  0
HATCH
  5
42A
330
71
100
AcDbEntity
  8
1
  6
Continuous
 62
     2
100
AcDbHatch
 10
0.0
 20
0.0
 30
0.0
210
0.0
220
0.0
230
1.0
  2
_USER
 70
     0
 71
     1
 91
        1
 92
        1
 93
        4
 72
     1
 10
-225.2147099913174
 20
-251.3473095238144
 11
-226.4552144015703
 21
-251.3473095238144
 72
     1
 10
-226.4552144015703
 20
-251.3473095238144
 11
-226.4552144015703
 21
-248.2935000000032
 72
     1
 10
-226.4552144015703
 20
-248.2935000000032
 11
-225.2147099913174
 21
-248.2935000000032
 72
     1
 10
-225.2147099913174
 20
-248.2935000000032
 11
-225.2147099913174
 21
-251.3473095238144
 97
        4
330
359
330
35B
330
3AB
330
35A
 75
     1
 76
     0
 52
45.0
 41
0.1
 77
     0
 78
     1
 53
45.0
 43
0.0
 44
0.0
 45
-0.0707106781186548
 46
0.0707106781186548
 79
     0
 98
        1
 10
0.0
 20
0.0
  0
HATCH
  5
42B
330
71
100
AcDbEntity
  8
1
  6
Continuous
 62
     2
100
AcDbHatch
 10
0.0
 20
0.0
 30
0.0
210
0.0
220
0.0
230
1.0
  2
_USER
 70
     0
 71
     1
 91
        1
 92
        1
 93
        4
 72
     1
 10
-225.2147099913174
 20
-251.3473095238144
 11
-226.4552144015703
 21
-251.3473095238144
 72
     1
 10
-226.4552144015703
 20
-251.3473095238144
 11
-226.4552144015703
 21
-248.2935000000032
 72
     1
 10
-226.4552144015703
 20
-248.2935000000032
 11
-225.2147099913174
 21
-248.2935000000032
 72
     1
 10
-225.2147099913174
 20
-248.2935000000032
 11
-225.2147099913174
 21
-251.3473095238144
 97
        4
330
359
330
35B
330
3AB
330
35A
 75
     1
 76
     0
 52
45.0
 41
0.1
 77
     0
 78
     1
 53
45.0
 43
0.0
 44
0.0
 45
-0.0707106781186548
 46
0.0707106781186548
 79
     0
 98
        1
 10
0.0
 20
0.0
  0
HATCH
  5
42C
330
71
100
AcDbEntity
  8
1
  6
Continuous
 62
     2
100
AcDbHatch
 10
0.0
 20
0.0
 30
0.0
210
0.0
220
0.0
230
1.0
  2
_USER
 70
     0
 71
     1
 91
        1
 92
        1
 93
       12
 72
     1
 10
-220.9922238256466
 20
-248.2935000000032
 11
-222.2947534564131
 21
-249.7664505300394
 72
     1
 10
-222.2947534564131
 20
-249.7664505300394
 11
-220.8968004094728
 21
-251.3473095238144
 72
     1
 10
-220.8968004094728
 20
-251.3473095238144
 11
-222.2995246272211
 21
-251.3473095238144
 72
     1
 10
-222.2995246272211
 20
-251.3473095238144
 11
-222.9961155652866
 21
-250.5595777385207
 72
     1
 10
-222.9961155652866
 20
-250.5595777385207
 11
-223.6927065033523
 21
-251.3473095238144
 72
     1
 10
-223.6927065033523
 20
-251.3473095238144
 11
-225.0954307211005
 21
-251.3473095238144
 72
     1
 10
-225.0954307211005
 20
-251.3473095238144
 11
-223.6974776741602
 21
-249.7664505300394
 72
     1
 10
-223.6974776741602
 20
-249.7664505300394
 11
-225.0000073049277
 21
-248.2935000000032
 72
     1
 10
-225.0000073049277
 20
-248.2935000000032
 11
-223.5972830871784
 21
-248.2935000000032
 72
     1
 10
-223.5972830871784
 20
-248.2935000000032
 11
-222.9961155652866
 21
-248.9733233215587
 72
     1
 10
-222.9961155652866
 20
-248.9733233215587
 11
-222.3949480433938
 21
-248.2935000000032
 72
     1
 10
-222.3949480433938
 20
-248.2935000000032
 11
-220.9922238256466
 21
-248.2935000000032
 97
       12
330
354
330
353
330
352
330
3AF
330
3B0
330
3AC
330
3AD
330
358
330
357
330
356
330
355
330
3AE
 75
     1
 76
     0
 52
45.0
 41
0.1
 77
     0
 78
     1
 53
45.0
 43
0.0
 44
0.0
 45
-0.0707106781186548
 46
0.0707106781186548
 79
     0
 98
        1
 10
0.0
 20
0.0
  0
HATCH
  5
42D
330
71
100
AcDbEntity
  8
1
  6
Continuous
 62
     2
100
AcDbHatch
 10
0.0
 20
0.0
 30
0.0
210
0.0
220
0.0
230
1.0
  2
_USER
 70
     0
 71
     1
 91
        1
 92
        1
 93
       12
 72
     1
 10
-220.9922238256466
 20
-248.2935000000032
 11
-222.2947534564131
 21
-249.7664505300394
 72
     1
 10
-222.2947534564131
 20
-249.7664505300394
 11
-220.8968004094728
 21
-251.3473095238144
 72
     1
 10
-220.8968004094728
 20
-251.3473095238144
 11
-222.2995246272211
 21
-251.3473095238144
 72
     1
 10
-222.2995246272211
 20
-251.3473095238144
 11
-222.9961155652866
 21
-250.5595777385207
 72
     1
 10
-222.9961155652866
 20
-250.5595777385207
 11
-223.6927065033523
 21
-251.3473095238144
 72
     1
 10
-223.6927065033523
 20
-251.3473095238144
 11
-225.0954307211005
 21
-251.3473095238144
 72
     1
 10
-225.0954307211005
 20
-251.3473095238144
 11
-223.6974776741602
 21
-249.7664505300394
 72
     1
 10
-223.6974776741602
 20
-249.7664505300394
 11
-225.0000073049277
 21
-248.2935000000032
 72
     1
 10
-225.0000073049277
 20
-248.2935000000032
 11
-223.5972830871784
 21
-248.2935000000032
 72
     1
 10
-223.5972830871784
 20
-248.2935000000032
 11
-222.9961155652866
 21
-248.9733233215587
 72
     1
 10
-222.9961155652866
 20
-248.9733233215587
 11
-222.3949480433938
 21
-248.2935000000032
 72
     1
 10
-222.3949480433938
 20
-248.2935000000032
 11
-220.9922238256466
 21
-248.2935000000032
 97
       12
330
354
330
353
330
352
330
3AF
330
3B0
330
3AC
330
3AD
330
358
330
357
330
356
330
355
330
3AE
 75
     1
 76
     0
 52
45.0
 41
0.1
 77
     0
 78
     1
 53
45.0
 43
0.0
 44
0.0
 45
-0.0707106781186548
 46
0.0707106781186548
 79
     0
 98
        1
 10
0.0
 20
0.0
  0
HATCH
  5
42E
330
71
100
AcDbEntity
  8
1
  6
Continuous
 62
     2
100
AcDbHatch
 10
0.0
 20
0.0
 30
0.0
210
0.0
220
0.0
230
1.0
  2
_USER
 70
     0
 71
     1
 91
        2
 92
        1
 93
        6
 72
     1
 10
-240.0099592397926
 20
-250.4042312826706
 11
-240.7687268275729
 21
-250.4042312826706
 72
     1
 10
-240.7687268275729
 20
-250.4042312826706
 11
-240.7687268275729
 21
-251.3473095238144
 72
     1
 10
-240.7687268275729
 20
-251.3473095238144
 11
-242.009231237827
 21
-251.3473095238144
 72
     1
 10
-242.009231237827
 20
-251.3473095238144
 11
-242.009231237827
 21
-248.2935000000032
 72
     1
 10
-242.009231237827
 20
-248.2935000000032
 11
-240.0099592397926
 21
-248.2935000000032
 72
     2
 10
-240.0099592397926
 20
-249.3488656413369
 40
1.055365641333708
 50
270.0
 51
450.0
 73
     0
 97
        6
330
37C
330
37B
330
388
330
387
330
37D
330
3CD
 92
       16
 93
        4
 72
     2
 10
-240.451431766031
 20
-249.3094696701144
 40
0.3528638246711182
 50
270.0
 51
450.0
 73
     1
 72
     1
 10
-240.451431766031
 20
-248.9566058454433
 11
-240.7687268275729
 21
-248.9566058454433
 72
     1
 10
-240.7687268275729
 20
-248.9566058454433
 11
-240.7687268275729
 21
-249.6623334947855
 72
     1
 10
-240.7687268275729
 20
-249.6623334947855
 11
-240.451431766031
 21
-249.6623334947855
 97
        4
330
3E1
330
379
330
389
330
37A
 75
     1
 76
     0
 52
45.0
 41
0.1
 77
     0
 78
     1
 53
45.0
 43
0.0
 44
0.0
 45
-0.0707106781186548
 46
0.0707106781186548
 79
     0
 98
        1
 10
0.0
 20
0.0
  0
HATCH
  5
42F
330
71
100
AcDbEntity
  8
1
  6
Continuous
 62
     2
100
AcDbHatch
 10
0.0
 20
0.0
 30
0.0
210
0.0
220
0.0
230
1.0
  2
_USER
 70
     0
 71
     1
 91
        2
 92
        1
 93
        6
 72
     1
 10
-240.0099592397926
 20
-250.4042312826706
 11
-240.7687268275729
 21
-250.4042312826706
 72
     1
 10
-240.7687268275729
 20
-250.4042312826706
 11
-240.7687268275729
 21
-251.3473095238144
 72
     1
 10
-240.7687268275729
 20
-251.3473095238144
 11
-242.009231237827
 21
-251.3473095238144
 72
     1
 10
-242.009231237827
 20
-251.3473095238144
 11
-242.009231237827
 21
-248.2935000000032
 72
     1
 10
-242.009231237827
 20
-248.2935000000032
 11
-240.0099592397926
 21
-248.2935000000032
 72
     2
 10
-240.0099592397926
 20
-249.3488656413369
 40
1.055365641333708
 50
270.0
 51
450.0
 73
     0
 97
        6
330
37C
330
37B
330
388
330
387
330
37D
330
3CD
 92
       16
 93
        4
 72
     2
 10
-240.451431766031
 20
-249.3094696701144
 40
0.3528638246711182
 50
270.0
 51
450.0
 73
     1
 72
     1
 10
-240.451431766031
 20
-248.9566058454433
 11
-240.7687268275729
 21
-248.9566058454433
 72
     1
 10
-240.7687268275729
 20
-248.9566058454433
 11
-240.7687268275729
 21
-249.6623334947855
 72
     1
 10
-240.7687268275729
 20
-249.6623334947855
 11
-240.451431766031
 21
-249.6623334947855
 97
        4
330
3E1
330
379
330
389
330
37A
 75
     1
 76
     0
 52
45.0
 41
0.1
 77
     0
 78
     1
 53
45.0
 43
0.0
 44
0.0
 45
-0.0707106781186548
 46
0.0707106781186548
 79
     0
 98
        1
 10
0.0
 20
0.0
  0
HATCH
  5
430
330
71
100
AcDbEntity
  8
1
  6
Continuous
 62
     2
100
AcDbHatch
 10
0.0
 20
0.0
 30
0.0
210
0.0
220
0.0
230
1.0
  2
_USER
 70
     0
 71
     1
 91
        2
 92
        1
 93
        4
 72
     2
 10
-237.4534164914335
 20
-253.7181702483862
 40
2.065479772208568
 50
62.45185182430637
 51
117.5481481756664
 73
     1
 72
     2
 10
-237.7343563832668
 20
-253.1795952380834
 40
1.45803408365149
 50
117.5481481756624
 51
242.4518518243375
 73
     1
 72
     2
 10
-237.4534164914335
 20
-252.6410202277801
 40
2.065479772208509
 50
242.4518518243402
 51
297.5481481756871
 73
     1
 72
     2
 10
-237.1724765996002
 20
-253.1795952380834
 40
1.458034083652003
 50
297.548148175701
 51
422.451851824299
 73
     1
 97
        4
330
3D9
330
3D8
330
3DA
330
3D7
 92
       16
 93
        4
 72
     2
 10
-237.6531565277799
 20
-253.1795952380834
 40
0.7717997786796947
 50
321.8795802028417
 51
398.1204197971533
 73
     1
 72
     2
 10
-237.4534164914335
 20
-253.0228640599629
 40
0.5179085730132998
 50
38.12041979714704
 51
141.8795802028588
 73
     1
 72
     2
 10
-237.2536764550874
 20
-253.1795952380834
 40
0.7717997786794633
 50
141.8795802028363
 51
218.1204197971687
 73
     1
 72
     2
 10
-237.4534164914335
 20
-253.3363264162034
 40
0.5179085730137354
 50
218.1204197971931
 51
321.879580202801
 73
     1
 97
        4
330
3F5
330
3F2
330
3F3
330
3F4
 75
     1
 76
     0
 52
45.0
 41
0.1
 77
     0
 78
     1
 53
45.0
 43
0.0
 44
0.0
 45
-0.0707106781186548
 46
0.0707106781186548
 79
     0
 98
        1
 10
0.0
 20
0.0
  0
HATCH
  5
431
330
71
100
AcDbEntity
  8
1
  6
Continuous
 62
     2
100
AcDbHatch
 10
0.0
 20
0.0
 30
0.0
210
0.0
220
0.0
230
1.0
  2
_USER
 70
     0
 71
     1
 91
        2
 92
        1
 93
        4
 72
     2
 10
-237.4534164914335
 20
-253.7181702483862
 40
2.065479772208568
 50
62.45185182430637
 51
117.5481481756664
 73
     1
 72
     2
 10
-237.7343563832668
 20
-253.1795952380834
 40
1.45803408365149
 50
117.5481481756624
 51
242.4518518243375
 73
     1
 72
     2
 10
-237.4534164914335
 20
-252.6410202277801
 40
2.065479772208509
 50
242.4518518243402
 51
297.5481481756871
 73
     1
 72
     2
 10
-237.1724765996002
 20
-253.1795952380834
 40
1.458034083652003
 50
297.548148175701
 51
422.451851824299
 73
     1
 97
        4
330
3D9
330
3D8
330
3DA
330
3D7
 92
       16
 93
        4
 72
     2
 10
-237.6531565277799
 20
-253.1795952380834
 40
0.7717997786796947
 50
321.8795802028417
 51
398.1204197971533
 73
     1
 72
     2
 10
-237.4534164914335
 20
-253.0228640599629
 40
0.5179085730132998
 50
38.12041979714704
 51
141.8795802028588
 73
     1
 72
     2
 10
-237.2536764550874
 20
-253.1795952380834
 40
0.7717997786794633
 50
141.8795802028363
 51
218.1204197971687
 73
     1
 72
     2
 10
-237.4534164914335
 20
-253.3363264162034
 40
0.5179085730137354
 50
218.1204197971931
 51
321.879580202801
 73
     1
 97
        4
330
3F5
330
3F2
330
3F3
330
3F4
 75
     1
 76
     0
 52
45.0
 41
0.1
 77
     0
 78
     1
 53
45.0
 43
0.0
 44
0.0
 45
-0.0707106781186548
 46
0.0707106781186548
 79
     0
 98
        1
 10
0.0
 20
0.0
  0
HATCH
  5
432
330
71
100
AcDbEntity
  8
1
  6
Continuous
 62
     2
100
AcDbHatch
 10
0.0
 20
0.0
 30
0.0
210
0.0
220
0.0
230
1.0
  2
_USER
 70
     0
 71
     1
 91
        2
 92
        1
 93
       12
 72
     1
 10
-230.5584212970242
 20
-248.9915136054462
 11
-231.8943491234519
 21
-248.9915136054462
 72
     1
 10
-231.8943491234519
 20
-248.9915136054462
 11
-231.8943491234519
 21
-249.4713979591879
 72
     1
 10
-231.8943491234519
 20
-249.4713979591879
 11
-230.5584212970242
 21
-249.4713979591879
 72
     1
 10
-230.5584212970242
 20
-249.4713979591879
 11
-230.5584212970242
 21
-250.1694115646302
 72
     1
 10
-230.5584212970242
 20
-250.1694115646302
 11
-231.8943491234519
 21
-250.1694115646302
 72
     1
 10
-231.8943491234519
 20
-250.1694115646302
 11
-231.8943491234519
 21
-250.6492959183719
 72
     1
 10
-231.8943491234519
 20
-250.6492959183719
 11
-230.5584212970242
 21
-250.6492959183719
 72
     1
 10
-230.5584212970242
 20
-250.6492959183719
 11
-230.5584212970242
 21
-251.3473095238144
 72
     1
 10
-230.5584212970242
 20
-251.3473095238144
 11
-233.7087410208052
 21
-251.3473095238144
 72
     2
 10
-233.7087410208052
 20
-249.8204047619091
 40
1.526904761905882
 50
90.0
 51
270.0
 73
     0
 72
     1
 10
-233.7087410208052
 20
-248.2935000000032
 11
-230.5584212970242
 21
-248.2935000000032
 72
     1
 10
-230.5584212970242
 20
-248.2935000000032
 11
-230.5584212970242
 21
-248.9915136054462
 97
       12
330
390
330
3E2
330
391
330
392
330
393
330
394
330
371
330
370
330
36F
330
36E
330
395
330
38F
 92
       16
 93
        4
 72
     2
 10
-233.49246901064
 20
-249.6636735837886
 40
0.5179085730135266
 50
38.12041979714334
 51
141.8795802028489
 73
     1
 72
     2
 10
-233.2927289742937
 20
-249.8204047619091
 40
0.7717997786796724
 50
141.8795802028404
 51
218.1204197971562
 73
     1
 72
     2
 10
-233.49246901064
 20
-249.9771359400295
 40
0.5179085730134372
 50
218.1204197971511
 51
321.8795802028566
 73
     1
 72
     2
 10
-233.6922090469862
 20
-249.8204047619091
 40
0.7717997786796373
 50
321.8795802028437
 51
398.1204197971596
 73
     1
 97
        4
330
3DC
330
3DB
330
3D6
330
3D5
 75
     1
 76
     0
 52
45.0
 41
0.1
 77
     0
 78
     1
 53
45.0
 43
0.0
 44
0.0
 45
-0.0707106781186548
 46
0.0707106781186548
 79
     0
 98
        1
 10
0.0
 20
0.0
  0
HATCH
  5
433
330
71
100
AcDbEntity
  8
1
  6
Continuous
 62
     2
100
AcDbHatch
 10
0.0
 20
0.0
 30
0.0
210
0.0
220
0.0
230
1.0
  2
_USER
 70
     0
 71
     1
 91
        2
 92
        1
 93
       12
 72
     1
 10
-230.5584212970242
 20
-248.9915136054462
 11
-231.8943491234519
 21
-248.9915136054462
 72
     1
 10
-231.8943491234519
 20
-248.9915136054462
 11
-231.8943491234519
 21
-249.4713979591879
 72
     1
 10
-231.8943491234519
 20
-249.4713979591879
 11
-230.5584212970242
 21
-249.4713979591879
 72
     1
 10
-230.5584212970242
 20
-249.4713979591879
 11
-230.5584212970242
 21
-250.1694115646302
 72
     1
 10
-230.5584212970242
 20
-250.1694115646302
 11
-231.8943491234519
 21
-250.1694115646302
 72
     1
 10
-231.8943491234519
 20
-250.1694115646302
 11
-231.8943491234519
 21
-250.6492959183719
 72
     1
 10
-231.8943491234519
 20
-250.6492959183719
 11
-230.5584212970242
 21
-250.6492959183719
 72
     1
 10
-230.5584212970242
 20
-250.6492959183719
 11
-230.5584212970242
 21
-251.3473095238144
 72
     1
 10
-230.5584212970242
 20
-251.3473095238144
 11
-233.7087410208052
 21
-251.3473095238144
 72
     2
 10
-233.7087410208052
 20
-249.8204047619091
 40
1.526904761905882
 50
90.0
 51
270.0
 73
     0
 72
     1
 10
-233.7087410208052
 20
-248.2935000000032
 11
-230.5584212970242
 21
-248.2935000000032
 72
     1
 10
-230.5584212970242
 20
-248.2935000000032
 11
-230.5584212970242
 21
-248.9915136054462
 97
       12
330
390
330
3E2
330
391
330
392
330
393
330
394
330
371
330
370
330
36F
330
36E
330
395
330
38F
 92
       16
 93
        4
 72
     2
 10
-233.49246901064
 20
-249.6636735837886
 40
0.5179085730135266
 50
38.12041979714334
 51
141.8795802028489
 73
     1
 72
     2
 10
-233.2927289742937
 20
-249.8204047619091
 40
0.7717997786796724
 50
141.8795802028404
 51
218.1204197971562
 73
     1
 72
     2
 10
-233.49246901064
 20
-249.9771359400295
 40
0.5179085730134372
 50
218.1204197971511
 51
321.8795802028566
 73
     1
 72
     2
 10
-233.6922090469862
 20
-249.8204047619091
 40
0.7717997786796373
 50
321.8795802028437
 51
398.1204197971596
 73
     1
 97
        4
330
3DC
330
3DB
330
3D6
330
3D5
 75
     1
 76
     0
 52
45.0
 41
0.1
 77
     0
 78
     1
 53
45.0
 43
0.0
 44
0.0
 45
-0.0707106781186548
 46
0.0707106781186548
 79
     0
 98
        1
 10
0.0
 20
0.0
  0
HATCH
  5
434
330
71
100
AcDbEntity
  8
1
  6
Continuous
 62
     2
100
AcDbHatch
 10
0.0
 20
0.0
 30
0.0
210
0.0
220
0.0
230
1.0
  2
_USER
 70
     0
 71
     1
 91
        4
 92
        1
 93
        8
 72
     1
 10
-242.4863483186938
 20
-248.7177446154052
 11
-242.4863483186938
 21
-254.2822553846054
 72
     2
 10
-242.9105929340777
 20
-254.2822553846054
 40
0.4242446153832873
 50
0.0
 51
90.0
 73
     0
 72
     1
 10
-242.9105929340777
 20
-254.7064999999887
 11
-248.3839050247945
 21
-254.7064999999887
 72
     2
 10
-248.3839050247945
 20
-254.2822553846054
 40
0.4242446153828041
 50
90.0
 51
180.0
 73
     0
 72
     1
 10
-248.8081496401773
 20
-254.2822553846054
 11
-248.8081496401773
 21
-248.7177446154052
 72
     2
 10
-248.3839050247945
 20
-248.7177446154052
 40
0.4242446153837989
 50
180.0
 51
270.0
 73
     0
 72
     1
 10
-248.3839050247945
 20
-248.2935000000214
 11
-242.9105929340777
 21
-248.2935000000214
 72
     2
 10
-242.9105929340777
 20
-248.7177446154052
 40
0.4242446153838841
 50
270.0
 51
360.0
 73
     0
 97
        8
330
384
330
3D2
330
385
330
3DD
330
382
330
3D4
330
383
330
3D3
 92
       16
 93
        1
 72
     2
 10
-245.764319374277
 20
-251.0366268437607
 40
0.4709789327785074
 50
0.0
 51
360.0
 73
     1
 97
        1
330
3F8
 92
       16
 93
        8
 72
     2
 10
-245.2144616615163
 20
-252.1457684437291
 40
0.3157169230765328
 50
115.3740086783519
 51
180.0
 73
     1
 72
     1
 10
-245.5301785845931
 20
-252.1457684437291
 11
-245.5301785845931
 21
-252.7276198504242
 72
     2
 10
-245.2144616615163
 20
-252.7276198504242
 40
0.315716923076792
 50
180.0
 51
269.8110329574542
 73
     1
 72
     2
 10
-245.2088455262063
 20
-251.0247849028552
 40
2.018561131933266
 50
269.8110329575858
 51
450.1889670424142
 73
     1
 72
     2
 10
-245.2144616615163
 20
-249.3219499552861
 40
0.3157169230760711
 50
90.18896704254594
 51
180.0
 73
     1
 72
     1
 10
-245.5301785845931
 20
-249.3219499552861
 11
-245.5301785845931
 21
-249.9274852437929
 72
     2
 10
-245.2144616615163
 20
-249.9274852437929
 40
0.315716923076792
 50
180.0
 51
244.6259913216482
 73
     1
 72
     2
 10
-245.7405043596042
 20
-251.0366268437607
 40
0.911848150144459
 50
295.3740086781925
 51
424.6259913218236
 73
     0
 97
        8
330
3EA
330
34B
330
3E7
330
3E8
330
3C6
330
34A
330
3E9
330
3C5
 92
       16
 93
       12
 72
     2
 10
-247.790010348048
 20
-253.6782275213551
 40
0.3157169230756836
 50
180.0
 51
270.0
 73
     1
 72
     1
 10
-247.790010348048
 20
-253.9939444444318
 11
-246.3141770870384
 21
-253.9939444444318
 72
     2
 10
-246.3141770870384
 20
-253.6782275213551
 40
0.3157169230767067
 50
270.0
 51
360.0
 73
     1
 72
     1
 10
-245.9984601639618
 20
-253.6782275213551
 11
-245.9984601639618
 21
-252.1474565898235
 72
     2
 10
-246.3141770870384
 20
-252.1474565898235
 40
0.315716923076593
 50
0.0
 51
64.80558935146027
 73
     1
 72
     2
 10
-245.7915926394634
 20
-251.0366268437607
 40
0.9118975235576147
 50
115.1944106485122
 51
244.8055893514718
 73
     0
 72
     2
 10
-246.3141770870384
 20
-249.9257970976985
 40
0.3157169230761203
 50
295.1944106485397
 51
360.0
 73
     1
 72
     1
 10
-245.9984601639618
 20
-249.9257970976985
 11
-245.9984601639618
 21
-249.321772478638
 72
     2
 10
-246.3141770870384
 20
-249.321772478638
 40
0.315716923076593
 50
0.0
 51
90.0
 73
     1
 72
     1
 10
-246.3141770870384
 20
-249.0060555555618
 11
-247.790010348048
 21
-249.0060555555618
 72
     2
 10
-247.790010348048
 20
-249.321772478638
 40
0.3157169230761951
 50
90.0
 51
180.0
 73
     1
 72
     1
 10
-248.1057272711237
 20
-249.321772478638
 11
-248.1057272711237
 21
-253.6782275213551
 97
       12
330
3CE
330
386
330
3D1
330
381
330
3DE
330
3DF
330
3D0
330
380
330
3CF
330
37F
330
3E0
330
37E
 75
     1
 76
     0
 52
45.0
 41
0.1
 77
     0
 78
     1
 53
45.0
 43
0.0
 44
0.0
 45
-0.0707106781186548
 46
0.0707106781186548
 79
     0
 98
        1
 10
0.0
 20
0.0
  0
HATCH
  5
435
330
71
100
AcDbEntity
  8
1
  6
Continuous
 62
     2
100
AcDbHatch
 10
0.0
 20
0.0
 30
0.0
210
0.0
220
0.0
230
1.0
  2
_USER
 70
     0
 71
     1
 91
        4
 92
        1
 93
        8
 72
     1
 10
-242.4863483186938
 20
-248.7177446154052
 11
-242.4863483186938
 21
-254.2822553846054
 72
     2
 10
-242.9105929340777
 20
-254.2822553846054
 40
0.4242446153832873
 50
0.0
 51
90.0
 73
     0
 72
     1
 10
-242.9105929340777
 20
-254.7064999999887
 11
-248.3839050247945
 21
-254.7064999999887
 72
     2
 10
-248.3839050247945
 20
-254.2822553846054
 40
0.4242446153828041
 50
90.0
 51
180.0
 73
     0
 72
     1
 10
-248.8081496401773
 20
-254.2822553846054
 11
-248.8081496401773
 21
-248.7177446154052
 72
     2
 10
-248.3839050247945
 20
-248.7177446154052
 40
0.4242446153837989
 50
180.0
 51
270.0
 73
     0
 72
     1
 10
-248.3839050247945
 20
-248.2935000000214
 11
-242.9105929340777
 21
-248.2935000000214
 72
     2
 10
-242.9105929340777
 20
-248.7177446154052
 40
0.4242446153838841
 50
270.0
 51
360.0
 73
     0
 97
        8
330
384
330
3D2
330
385
330
3DD
330
382
330
3D4
330
383
330
3D3
 92
       16
 93
        1
 72
     2
 10
-245.764319374277
 20
-251.0366268437607
 40
0.4709789327785074
 50
0.0
 51
360.0
 73
     1
 97
        1
330
3F8
 92
       16
 93
        8
 72
     2
 10
-245.2144616615163
 20
-252.1457684437291
 40
0.3157169230765328
 50
115.3740086783519
 51
180.0
 73
     1
 72
     1
 10
-245.5301785845931
 20
-252.1457684437291
 11
-245.5301785845931
 21
-252.7276198504242
 72
     2
 10
-245.2144616615163
 20
-252.7276198504242
 40
0.315716923076792
 50
180.0
 51
269.8110329574542
 73
     1
 72
     2
 10
-245.2088455262063
 20
-251.0247849028552
 40
2.018561131933266
 50
269.8110329575858
 51
450.1889670424142
 73
     1
 72
     2
 10
-245.2144616615163
 20
-249.3219499552861
 40
0.3157169230760711
 50
90.18896704254594
 51
180.0
 73
     1
 72
     1
 10
-245.5301785845931
 20
-249.3219499552861
 11
-245.5301785845931
 21
-249.9274852437929
 72
     2
 10
-245.2144616615163
 20
-249.9274852437929
 40
0.315716923076792
 50
180.0
 51
244.6259913216482
 73
     1
 72
     2
 10
-245.7405043596042
 20
-251.0366268437607
 40
0.911848150144459
 50
295.3740086781925
 51
424.6259913218236
 73
     0
 97
        8
330
3EA
330
34B
330
3E7
330
3E8
330
3C6
330
34A
330
3E9
330
3C5
 92
       16
 93
       12
 72
     2
 10
-247.790010348048
 20
-253.6782275213551
 40
0.3157169230756836
 50
180.0
 51
270.0
 73
     1
 72
     1
 10
-247.790010348048
 20
-253.9939444444318
 11
-246.3141770870384
 21
-253.9939444444318
 72
     2
 10
-246.3141770870384
 20
-253.6782275213551
 40
0.3157169230767067
 50
270.0
 51
360.0
 73
     1
 72
     1
 10
-245.9984601639618
 20
-253.6782275213551
 11
-245.9984601639618
 21
-252.1474565898235
 72
     2
 10
-246.3141770870384
 20
-252.1474565898235
 40
0.315716923076593
 50
0.0
 51
64.80558935146027
 73
     1
 72
     2
 10
-245.7915926394634
 20
-251.0366268437607
 40
0.9118975235576147
 50
115.1944106485122
 51
244.8055893514718
 73
     0
 72
     2
 10
-246.3141770870384
 20
-249.9257970976985
 40
0.3157169230761203
 50
295.1944106485397
 51
360.0
 73
     1
 72
     1
 10
-245.9984601639618
 20
-249.9257970976985
 11
-245.9984601639618
 21
-249.321772478638
 72
     2
 10
-246.3141770870384
 20
-249.321772478638
 40
0.315716923076593
 50
0.0
 51
90.0
 73
     1
 72
     1
 10
-246.3141770870384
 20
-249.0060555555618
 11
-247.790010348048
 21
-249.0060555555618
 72
     2
 10
-247.790010348048
 20
-249.321772478638
 40
0.3157169230761951
 50
90.0
 51
180.0
 73
     1
 72
     1
 10
-248.1057272711237
 20
-249.321772478638
 11
-248.1057272711237
 21
-253.6782275213551
 97
       12
330
3CE
330
386
330
3D1
330
381
330
3DE
330
3DF
330
3D0
330
380
330
3CF
330
37F
330
3E0
330
37E
 75
     1
 76
     0
 52
45.0
 41
0.1
 77
     0
 78
     1
 53
45.0
 43
0.0
 44
0.0
 45
-0.0707106781186548
 46
0.0707106781186548
 79
     0
 98
        1
 10
0.0
 20
0.0
  0
HATCH
  5
436
330
71
100
AcDbEntity
  8
1
  6
Continuous
 62
     2
100
AcDbHatch
 10
0.0
 20
0.0
 30
0.0
210
0.0
220
0.0
230
1.0
  2
_USER
 70
     0
 71
     1
 91
        1
 92
        1
 93
       18
 72
     1
 10
-220.8968004094728
 20
-252.4379557823012
 11
-221.7078994469462
 21
-252.4379557823012
 72
     1
 10
-221.7078994469462
 20
-252.4379557823012
 11
-221.7078994469462
 21
-254.7064999999887
 72
     1
 10
-221.7078994469462
 20
-254.7064999999887
 11
-222.9006921491139
 21
-254.7064999999887
 72
     1
 10
-222.9006921491139
 20
-254.7064999999887
 11
-222.9006921491139
 21
-252.4379557823012
 72
     1
 10
-222.9006921491139
 20
-252.4379557823012
 11
-224.004331448682
 21
-252.4379557823012
 72
     2
 10
-224.004331448682
 20
-253.3924787891273
 40
0.9545230068260935
 50
90.0
 51
109.337143219432
 73
     1
 72
     2
 10
-224.1510014467857
 20
-252.9745238087444
 40
0.5115800601944143
 50
109.3371432194853
 51
151.4785267424225
 73
     1
 72
     2
 10
-223.7736441887043
 20
-253.1795952380834
 40
0.9410597353348924
 50
151.4785267423624
 51
208.5214732576695
 73
     1
 72
     2
 10
-224.1510014467857
 20
-253.3846666674219
 40
0.5115800601960215
 50
208.5214732576866
 51
246.6277221118449
 73
     1
 72
     2
 10
-223.9945614140826
 20
-253.0226746487119
 40
0.9059297849852801
 50
246.6277221118183
 51
288.4480761180817
 73
     1
 72
     2
 10
-224.4127291477445
 20
-251.7691288726753
 40
2.227384008972746
 50
288.4480761181335
 51
301.9309089499397
 73
     1
 72
     1
 10
-223.2346741057206
 20
-253.6594795918251
 11
-223.2346741057206
 21
-254.5319965986284
 72
     2
 10
-224.5706020228373
 20
-249.866914292827
 40
4.852596863498825
 50
74.02000874166129
 51
84.84185523036365
 73
     0
 72
     2
 10
-224.2817459281015
 20
-253.0668048760486
 40
1.639695123940448
 50
84.8418552303238
 51
164.9381082228988
 73
     0
 72
     2
 10
-224.7008737715631
 20
-253.1795952380834
 40
1.205656168393002
 50
164.9381082229041
 51
195.0618917770972
 73
     0
 72
     2
 10
-224.2817459281015
 20
-253.2923856001183
 40
1.639695123940214
 50
195.061891777105
 51
270.0
 73
     0
 72
     1
 10
-224.2817459281015
 20
-251.6526904761781
 11
-220.8968004094728
 21
-251.6526904761776
 72
     1
 10
-220.8968004094728
 20
-251.6526904761776
 11
-220.8968004094728
 21
-252.4379557823012
 97
       18
330
34D
330
3E3
330
3E4
330
3CC
330
3CB
330
3B1
330
3CA
330
3C9
330
3E5
330
3C8
330
3E6
330
3C7
330
3B2
330
34C
330
351
330
350
330
34F
330
34E
 75
     1
 76
     0
 52
45.0
 41
0.1
 77
     0
 78
     1
 53
45.0
 43
0.0
 44
0.0
 45
-0.0707106781186548
 46
0.0707106781186548
 79
     0
 98
        1
 10
0.0
 20
0.0
  0
HATCH
  5
437
330
71
100
AcDbEntity
  8
1
  6
Continuous
 62
     2
100
AcDbHatch
 10
0.0
 20
0.0
 30
0.0
210
0.0
220
0.0
230
1.0
  2
_USER
 70
     0
 71
     1
 91
        1
 92
        1
 93
       18
 72
     1
 10
-220.8968004094728
 20
-252.4379557823012
 11
-221.7078994469462
 21
-252.4379557823012
 72
     1
 10
-221.7078994469462
 20
-252.4379557823012
 11
-221.7078994469462
 21
-254.7064999999887
 72
     1
 10
-221.7078994469462
 20
-254.7064999999887
 11
-222.9006921491139
 21
-254.7064999999887
 72
     1
 10
-222.9006921491139
 20
-254.7064999999887
 11
-222.9006921491139
 21
-252.4379557823012
 72
     1
 10
-222.9006921491139
 20
-252.4379557823012
 11
-224.004331448682
 21
-252.4379557823012
 72
     2
 10
-224.004331448682
 20
-253.3924787891273
 40
0.9545230068260935
 50
90.0
 51
109.337143219432
 73
     1
 72
     2
 10
-224.1510014467857
 20
-252.9745238087444
 40
0.5115800601944143
 50
109.3371432194853
 51
151.4785267424225
 73
     1
 72
     2
 10
-223.7736441887043
 20
-253.1795952380834
 40
0.9410597353348924
 50
151.4785267423624
 51
208.5214732576695
 73
     1
 72
     2
 10
-224.1510014467857
 20
-253.3846666674219
 40
0.5115800601960215
 50
208.5214732576866
 51
246.6277221118449
 73
     1
 72
     2
 10
-223.9945614140826
 20
-253.0226746487119
 40
0.9059297849852801
 50
246.6277221118183
 51
288.4480761180817
 73
     1
 72
     2
 10
-224.4127291477445
 20
-251.7691288726753
 40
2.227384008972746
 50
288.4480761181335
 51
301.9309089499397
 73
     1
 72
     1
 10
-223.2346741057206
 20
-253.6594795918251
 11
-223.2346741057206
 21
-254.5319965986284
 72
     2
 10
-224.5706020228373
 20
-249.866914292827
 40
4.852596863498825
 50
74.02000874166129
 51
84.84185523036365
 73
     0
 72
     2
 10
-224.2817459281015
 20
-253.0668048760486
 40
1.639695123940448
 50
84.8418552303238
 51
164.9381082228988
 73
     0
 72
     2
 10
-224.7008737715631
 20
-253.1795952380834
 40
1.205656168393002
 50
164.9381082229041
 51
195.0618917770972
 73
     0
 72
     2
 10
-224.2817459281015
 20
-253.2923856001183
 40
1.639695123940214
 50
195.061891777105
 51
270.0
 73
     0
 72
     1
 10
-224.2817459281015
 20
-251.6526904761781
 11
-220.8968004094728
 21
-251.6526904761776
 72
     1
 10
-220.8968004094728
 20
-251.6526904761776
 11
-220.8968004094728
 21
-252.4379557823012
 97
       18
330
34D
330
3E3
330
3E4
330
3CC
330
3CB
330
3B1
330
3CA
330
3C9
330
3E5
330
3C8
330
3E6
330
3C7
330
3B2
330
34C
330
351
330
350
330
34F
330
34E
 75
     1
 76
     0
 52
45.0
 41
0.1
 77
     0
 78
     1
 53
45.0
 43
0.0
 44
0.0
 45
-0.0707106781186548
 46
0.0707106781186548
 79
     0
 98
        1
 10
0.0
 20
0.0
  0
HATCH
  5
438
330
71
100
AcDbEntity
  8
1
  6
Continuous
 62
     2
100
AcDbHatch
 10
0.0
 20
0.0
 30
0.0
210
0.0
220
0.0
230
1.0
  2
_USER
 70
     0
 71
     1
 91
        1
 92
        1
 93
       14
 72
     2
 10
-240.3844474073544
 20
-253.2923856001183
 40
1.639695123940507
 50
84.84185523036236
 51
164.9381082228864
 73
     1
 72
     2
 10
-240.8035752508172
 20
-253.1795952380834
 40
1.205656168390944
 50
164.9381082228765
 51
195.0618917770948
 73
     1
 72
     2
 10
-240.3844474073544
 20
-253.0668048760486
 40
1.639695123939387
 50
195.0618917770896
 51
275.1581447696395
 73
     1
 72
     2
 10
-240.6733035020903
 20
-249.866914292827
 40
4.852596863498138
 50
275.1581447696249
 51
285.9799912583529
 73
     1
 72
     1
 10
-239.3373755849725
 20
-254.5319965986278
 11
-239.3373755849725
 21
-253.6594795918246
 72
     2
 10
-240.5154306269974
 20
-251.7691288726747
 40
2.227384008972737
 50
58.0690910500407
 51
71.55192388186722
 73
     0
 72
     2
 10
-240.0972628933366
 20
-253.0226746487119
 40
0.9059297849849192
 50
71.55192388184153
 51
113.372277888129
 73
     0
 72
     2
 10
-240.2537029260386
 20
-253.3846666674219
 40
0.5115800601948034
 50
113.3722778881726
 51
151.4785267423044
 73
     0
 72
     2
 10
-239.8763456679583
 20
-253.1795952380834
 40
0.9410597353332545
 50
151.4785267422943
 51
208.5214732577331
 73
     0
 72
     2
 10
-240.2537029260386
 20
-252.9745238087444
 40
0.5115800601948779
 50
208.5214732576956
 51
246.6277221118009
 73
     0
 72
     2
 10
-240.0972628933366
 20
-253.336515827455
 40
0.9059297849853228
 50
246.627722111871
 51
288.4480761181465
 73
     0
 72
     2
 10
-240.5154306269974
 20
-254.5900616034916
 40
2.227384008973478
 50
288.4480761181328
 51
301.9309089499592
 73
     0
 72
     1
 10
-239.3373755849725
 20
-252.6997108843417
 11
-239.3373755849725
 21
-251.8271938775384
 72
     2
 10
-240.6733035020903
 20
-256.4922761833393
 40
4.852596863498068
 50
74.02000874164739
 51
84.84185523037506
 73
     1
 97
       14
330
3EB
330
3EC
330
3ED
330
3EE
330
3B3
330
3C4
330
3C3
330
3C2
330
3EF
330
3F0
330
3C1
330
3F1
330
3B4
330
3C0
 75
     1
 76
     0
 52
45.0
 41
0.1
 77
     0
 78
     1
 53
45.0
 43
0.0
 44
0.0
 45
-0.0707106781186548
 46
0.0707106781186548
 79
     0
 98
        1
 10
0.0
 20
0.0
  0
HATCH
  5
439
330
71
100
AcDbEntity
  8
1
  6
Continuous
 62
     2
100
AcDbHatch
 10
0.0
 20
0.0
 30
0.0
210
0.0
220
0.0
230
1.0
  2
_USER
 70
     0
 71
     1
 91
        1
 92
        1
 93
       14
 72
     2
 10
-240.3844474073544
 20
-253.2923856001183
 40
1.639695123940507
 50
84.84185523036236
 51
164.9381082228864
 73
     1
 72
     2
 10
-240.8035752508172
 20
-253.1795952380834
 40
1.205656168390944
 50
164.9381082228765
 51
195.0618917770948
 73
     1
 72
     2
 10
-240.3844474073544
 20
-253.0668048760486
 40
1.639695123939387
 50
195.0618917770896
 51
275.1581447696395
 73
     1
 72
     2
 10
-240.6733035020903
 20
-249.866914292827
 40
4.852596863498138
 50
275.1581447696249
 51
285.9799912583529
 73
     1
 72
     1
 10
-239.3373755849725
 20
-254.5319965986278
 11
-239.3373755849725
 21
-253.6594795918246
 72
     2
 10
-240.5154306269974
 20
-251.7691288726747
 40
2.227384008972737
 50
58.0690910500407
 51
71.55192388186722
 73
     0
 72
     2
 10
-240.0972628933366
 20
-253.0226746487119
 40
0.9059297849849192
 50
71.55192388184153
 51
113.372277888129
 73
     0
 72
     2
 10
-240.2537029260386
 20
-253.3846666674219
 40
0.5115800601948034
 50
113.3722778881726
 51
151.4785267423044
 73
     0
 72
     2
 10
-239.8763456679583
 20
-253.1795952380834
 40
0.9410597353332545
 50
151.4785267422943
 51
208.5214732577331
 73
     0
 72
     2
 10
-240.2537029260386
 20
-252.9745238087444
 40
0.5115800601948779
 50
208.5214732576956
 51
246.6277221118009
 73
     0
 72
     2
 10
-240.0972628933366
 20
-253.336515827455
 40
0.9059297849853228
 50
246.627722111871
 51
288.4480761181465
 73
     0
 72
     2
 10
-240.5154306269974
 20
-254.5900616034916
 40
2.227384008973478
 50
288.4480761181328
 51
301.9309089499592
 73
     0
 72
     1
 10
-239.3373755849725
 20
-252.6997108843417
 11
-239.3373755849725
 21
-251.8271938775384
 72
     2
 10
-240.6733035020903
 20
-256.4922761833393
 40
4.852596863498068
 50
74.02000874164739
 51
84.84185523037506
 73
     1
 97
       14
330
3EB
330
3EC
330
3ED
330
3EE
330
3B3
330
3C4
330
3C3
330
3C2
330
3EF
330
3F0
330
3C1
330
3F1
330
3B4
330
3C0
 75
     1
 76
     0
 52
45.0
 41
0.1
 77
     0
 78
     1
 53
45.0
 43
0.0
 44
0.0
 45
-0.0707106781186548
 46
0.0707106781186548
 79
     0
 98
        1
 10
0.0
 20
0.0
  0
ENDBLK
  5
73
330
71
100
AcDbEntity
  8
0
100
AcDbBlockEnd
  0
BLOCK
  5
75
330
74
100
AcDbEntity
  8
0
100
AcDbBlockBegin
  2
_punkt
 70
     0
 10
-123.4999999999899
 20
-262.000000000005
 30
0.0
  3
_punkt
  1

  0
LINE
  5
43A
330
74
100
AcDbEntity
  8
1
  6
Continuous
 62
     2
100
AcDbLine
 10
-123.4999999999899
 20
-262.000000000005
 30
0.0
 11
-118.4999999999909
 21
-262.000000000005
 31
0.0
  0
LINE
  5
43B
330
74
100
AcDbEntity
  8
1
  6
Continuous
 62
     2
100
AcDbLine
 10
-123.4999999999899
 20
-262.000000000005
 30
0.0
 11
-123.4999999999899
 21
-267.0000000000051
 31
0.0
  0
ENDBLK
  5
76
330
74
100
AcDbEntity
  8
0
100
AcDbBlockEnd
  0
BLOCK
  5
7A
330
77
100
AcDbEntity
  8
0
100
AcDbBlockBegin
  2
A4I_CS
 70
     0
 10
-123.4999999999899
 20
-267.0000000000051
 30
0.0
  3
A4I_CS
  1

  0
INSERT
  5
78
330
77
100
AcDbEntity
  8
1
100
AcDbBlockReference
  2
_rahmen
 10
-123.4999999999899
 20
-267.0000000000051
 30
0.0
  0
INSERT
  5
79
330
77
100
AcDbEntity
  8
1
100
AcDbBlockReference
  2
_punkt
 10
-123.4999999999899
 20
-262.000000000005
 30
0.0
  0
ENDBLK
  5
7B
330
77
100
AcDbEntity
  8
0
100
AcDbBlockEnd
  0
BLOCK
  5
84
330
7C
100
AcDbEntity
  8
0
100
AcDbBlockBegin
  2
1
 70
     0
 10
0.0
 20
0.0
 30
0.0
  3
1
  1

  0
INSERT
  5
7D
330
7C
100
AcDbEntity
  8
0
100
AcDbBlockReference
  2
Allg1
 10
-175.0000000001032
 20
-192.000000646652
 30
0.0
  0
INSERT
  5
7E
330
7C
100
AcDbEntity
  8
0
100
AcDbBlockReference
  2
Drfsicht1
 10
-301.0999999047539
 20
-196.0052817012225
 30
0.0
  0
INSERT
  5
7F
330
7C
100
AcDbEntity
  8
0
100
AcDbBlockReference
  2
Rckans1
 10
-173.99999999988
 20
-117.0000007467269
 30
0.0
  0
INSERT
  5
80
330
7C
100
AcDbEntity
  8
0
100
AcDbBlockReference
  2
SA_Links1
 10
-237.0499999523192
 20
-117.0000007467269
 30
0.0
  0
INSERT
  5
81
330
7C
100
AcDbEntity
  8
0
100
AcDbBlockReference
  2
SA_Rechts1
 10
-393.1499998569402
 20
-117.0000007467269
 30
0.0
  0
INSERT
  5
82
330
7C
100
AcDbEntity
  8
0
100
AcDbBlockReference
  2
Vordans1
 10
-301.0999999047525
 20
-117.000000746727
 30
0.0
  0
INSERT
  5
83
330
7C
100
AcDbEntity
  8
0
100
AcDbBlockReference
  2
A4I_CS
 10
-123.4999999999899
 20
-267.0000000000051
 30
0.0
  0
ENDBLK
  5
85
330
7C
100
AcDbEntity
  8
0
100
AcDbBlockEnd
  0
BLOCK
  5
1BF
330
1B8
100
AcDbEntity
  8
0
100
AcDbBlockBegin
  2
*D17
 70
     1
 10
0.0
 20
0.0
 30
0.0
  3
*D17
  1

  0
LINE
  5
1B9
330
1B8
100
AcDbEntity
  8
1
  6
Continuous
 62
     2
100
AcDbLine
 10
-354.2499996356328
 20
-204.9052820826872
 30
0.0
 11
-354.2499996356328
 21
-187.1052820826872
 31
0.0
  0
LINE
  5
1BA
330
1B8
100
AcDbEntity
  8
1
  6
Continuous
 62
     2
100
AcDbLine
 10
-338.8499996356328
 20
-204.9052820826872
 30
0.0
 11
-355.7499996356328
 21
-204.9052820826872
 31
0.0
  0
LINE
  5
1BB
330
1B8
100
AcDbEntity
  8
1
  6
Continuous
 62
     2
100
AcDbLine
 10
-338.8499996356328
 20
-187.1052820826872
 30
0.0
 11
-355.7499996356328
 21
-187.1052820826872
 31
0.0
  0
SOLID
  5
1BC
330
1B8
100
AcDbEntity
  8
1
 62
     2
100
AcDbTrace
 10
-354.7107833771886
 20
-201.4052820826872
 30
0.0
 11
-353.7892158940769
 21
-201.4052820826872
 31
0.0
 12
-354.2499996356328
 22
-204.9052820826872
 32
0.0
 13
-354.2499996356328
 23
-204.9052820826872
 33
0.0
  0
SOLID
  5
1BD
330
1B8
100
AcDbEntity
  8
1
 62
     2
100
AcDbTrace
 10
-353.7892158940769
 20
-190.6052820826872
 30
0.0
 11
-354.7107833771886
 21
-190.6052820826872
 31
0.0
 12
-354.2499996356328
 22
-187.1052820826872
 32
0.0
 13
-354.2499996356328
 23
-187.1052820826872
 33
0.0
  0
MTEXT
  5
1BE
330
1B8
100
AcDbEntity
  8
1
 62
     3
100
AcDbMText
 10
-356.0999996356328
 20
-200.2927820826871
 30
0.0
 40
3.5
 41
0.0
 71
     7
 72
     1
  1
17,8
  7
CONVERTER_11
 11
0.0
 21
1.0
 31
0.0
 73
     1
 44
0.60024009603842
  0
ENDBLK
  5
1C0
330
1B8
100
AcDbEntity
  8
0
100
AcDbBlockEnd
  0
BLOCK
  5
2CA
330
2C3
100
AcDbEntity
  8
0
100
AcDbBlockBegin
  2
*D18
 70
     1
 10
0.0
 20
0.0
 30
0.0
  3
*D18
  1

  0
LINE
  5
2C4
330
2C3
100
AcDbEntity
  8
1
  6
Continuous
 62
     2
100
AcDbLine
 10
-354.2499996356328
 20
-143.3052828144374
 30
0.0
 11
-354.2499996356328
 21
-88.23255554171013
 31
0.0
  0
LINE
  5
2C5
330
2C3
100
AcDbEntity
  8
1
  6
Continuous
 62
     2
100
AcDbLine
 10
-280.7499996356315
 20
-143.3052828144374
 30
0.0
 11
-355.7499996356328
 21
-143.3052828144374
 31
0.0
  0
LINE
  5
2C6
330
2C3
100
AcDbEntity
  8
1
  6
Continuous
 62
     2
100
AcDbLine
 10
-279.8772723629042
 20
-88.23255554171013
 30
0.0
 11
-355.7499996356328
 21
-88.23255554171013
 31
0.0
  0
SOLID
  5
2C7
330
2C3
100
AcDbEntity
  8
1
 62
     2
100
AcDbTrace
 10
-354.7107833771886
 20
-139.8052828144374
 30
0.0
 11
-353.7892158940769
 21
-139.8052828144374
 31
0.0
 12
-354.2499996356328
 22
-143.3052828144374
 32
0.0
 13
-354.2499996356328
 23
-143.3052828144374
 33
0.0
  0
SOLID
  5
2C8
330
2C3
100
AcDbEntity
  8
1
 62
     2
100
AcDbTrace
 10
-353.7892158940769
 20
-91.73255554171013
 30
0.0
 11
-354.7107833771886
 21
-91.73255554171013
 31
0.0
 12
-354.2499996356328
 22
-88.23255554171013
 32
0.0
 13
-354.2499996356328
 23
-88.23255554171013
 33
0.0
  0
MTEXT
  5
2C9
330
2C3
100
AcDbEntity
  8
1
 62
     3
100
AcDbMText
 10
-356.0999996356328
 20
-121.0530983218333
 30
0.0
 40
3.5
 41
0.0
 71
     7
 72
     1
  1
55,07
  7
CONVERTER_11
 11
0.0
 21
1.0
 31
0.0
 73
     1
 44
0.60024009603842
  0
ENDBLK
  5
2CB
330
2C3
100
AcDbEntity
  8
0
100
AcDbBlockEnd
  0
BLOCK
  5
2D5
330
2CE
100
AcDbEntity
  8
0
100
AcDbBlockBegin
  2
*D19
 70
     1
 10
0.0
 20
0.0
 30
0.0
  3
*D19
  1

  0
LINE
  5
2CF
330
2CE
100
AcDbEntity
  8
1
  6
Continuous
 62
     2
100
AcDbLine
 10
-344.2499996356315
 20
-175.1052828144374
 30
0.0
 11
-257.9499996356315
 21
-175.1052828144374
 31
0.0
  0
LINE
  5
2D0
330
2CE
100
AcDbEntity
  8
1
  6
Continuous
 62
     2
100
AcDbLine
 10
-344.2499996356315
 20
-147.6552828144374
 30
0.0
 11
-344.2499996356315
 21
-176.6052828144374
 31
0.0
  0
LINE
  5
2D1
330
2CE
100
AcDbEntity
  8
1
  6
Continuous
 62
     2
100
AcDbLine
 10
-257.9499996356315
 20
-143.3052828144374
 30
0.0
 11
-257.9499996356315
 21
-176.6052828144374
 31
0.0
  0
SOLID
  5
2D2
330
2CE
100
AcDbEntity
  8
1
 62
     2
100
AcDbTrace
 10
-340.7499996356315
 20
-174.6444990728815
 30
0.0
 11
-340.7499996356315
 21
-175.5660665559933
 31
0.0
 12
-344.2499996356315
 22
-175.1052828144374
 32
0.0
 13
-344.2499996356315
 23
-175.1052828144374
 33
0.0
  0
SOLID
  5
2D3
330
2CE
100
AcDbEntity
  8
1
 62
     2
100
AcDbTrace
 10
-261.4499996356315
 20
-175.5660665559933
 30
0.0
 11
-261.4499996356315
 21
-174.6444990728815
 31
0.0
 12
-257.9499996356315
 22
-175.1052828144374
 32
0.0
 13
-257.9499996356315
 23
-175.1052828144374
 33
0.0
  0
MTEXT
  5
2D4
330
2CE
100
AcDbEntity
  8
1
 62
     3
100
AcDbMText
 10
-304.895060680068
 20
-173.2552828144374
 30
0.0
 40
3.5
 41
0.0
 71
     7
 72
     1
  1
86,3
  7
CONVERTER_11
 11
0.9999999999970619
 21
2.424068405545306E-6
 31
0.0
 73
     1
 44
0.60024009603842
  0
ENDBLK
  5
2D6
330
2CE
100
AcDbEntity
  8
0
100
AcDbBlockEnd
  0
BLOCK
  5
2E0
330
2D9
100
AcDbEntity
  8
0
100
AcDbBlockBegin
  2
*D20
 70
     1
 10
0.0
 20
0.0
 30
0.0
  3
*D20
  1

  0
LINE
  5
2DA
330
2D9
100
AcDbEntity
  8
1
  6
Continuous
 62
     2
100
AcDbLine
 10
-298.2499996356316
 20
-167.1052828144374
 30
0.0
 11
-257.9499996356315
 21
-167.1052828144374
 31
0.0
  0
LINE
  5
2DB
330
2D9
100
AcDbEntity
  8
1
  6
Continuous
 62
     2
100
AcDbLine
 10
-298.2499996356316
 20
-149.1052828144374
 30
0.0
 11
-298.2499996356316
 21
-168.6052828144374
 31
0.0
  0
LINE
  5
2DC
330
2D9
100
AcDbEntity
  8
1
  6
Continuous
 62
     2
100
AcDbLine
 10
-257.9499996356315
 20
-143.3052828144374
 30
0.0
 11
-257.9499996356315
 21
-168.6052828144374
 31
0.0
  0
SOLID
  5
2DD
330
2D9
100
AcDbEntity
  8
1
 62
     2
100
AcDbTrace
 10
-294.7499996356316
 20
-166.6444990728815
 30
0.0
 11
-294.7499996356316
 21
-167.5660665559933
 31
0.0
 12
-298.2499996356316
 22
-167.1052828144374
 32
0.0
 13
-298.2499996356316
 23
-167.1052828144374
 33
0.0
  0
SOLID
  5
2DE
330
2D9
100
AcDbEntity
  8
1
 62
     2
100
AcDbTrace
 10
-261.4499996356315
 20
-167.5660665559933
 30
0.0
 11
-261.4499996356315
 21
-166.6444990728815
 31
0.0
 12
-257.9499996356315
 22
-167.1052828144374
 32
0.0
 13
-257.9499996356315
 23
-167.1052828144374
 33
0.0
  0
MTEXT
  5
2DF
330
2D9
100
AcDbEntity
  8
1
 62
     3
100
AcDbMText
 10
-283.344817756294
 20
-165.2552828144374
 30
0.0
 40
3.5
 41
0.0
 71
     7
 72
     1
  1
40,3
  7
CONVERTER_11
 11
0.9999999999970619
 21
2.424068405545306E-6
 31
0.0
 73
     1
 44
0.60024009603842
  0
ENDBLK
  5
2E1
330
2D9
100
AcDbEntity
  8
0
100
AcDbBlockEnd
  0
BLOCK
  5
2EB
330
2E4
100
AcDbEntity
  8
0
100
AcDbBlockBegin
  2
*D21
 70
     1
 10
0.0
 20
0.0
 30
0.0
  3
*D21
  1

  0
LINE
  5
2E5
330
2E4
100
AcDbEntity
  8
1
  6
Continuous
 62
     2
100
AcDbLine
 10
-298.2499996356316
 20
-159.1052828144374
 30
0.0
 11
-280.7499996356315
 21
-159.1052828144374
 31
0.0
  0
LINE
  5
2E6
330
2E4
100
AcDbEntity
  8
1
  6
Continuous
 62
     2
100
AcDbLine
 10
-298.2499996356316
 20
-149.1052828144374
 30
0.0
 11
-298.2499996356316
 21
-160.6052828144374
 31
0.0
  0
LINE
  5
2E7
330
2E4
100
AcDbEntity
  8
1
  6
Continuous
 62
     2
100
AcDbLine
 10
-280.7499996356315
 20
-144.4052828144374
 30
0.0
 11
-280.7499996356315
 21
-160.6052828144374
 31
0.0
  0
SOLID
  5
2E8
330
2E4
100
AcDbEntity
  8
1
 62
     2
100
AcDbTrace
 10
-294.7499996356316
 20
-158.6444990728815
 30
0.0
 11
-294.7499996356316
 21
-159.5660665559933
 31
0.0
 12
-298.2499996356316
 22
-159.1052828144374
 32
0.0
 13
-298.2499996356316
 23
-159.1052828144374
 33
0.0
  0
SOLID
  5
2E9
330
2E4
100
AcDbEntity
  8
1
 62
     2
100
AcDbTrace
 10
-284.2499996356315
 20
-159.5660665559933
 30
0.0
 11
-284.2499996356315
 21
-158.6444990728815
 31
0.0
 12
-280.7499996356315
 22
-159.1052828144374
 32
0.0
 13
-280.7499996356315
 23
-159.1052828144374
 33
0.0
  0
MTEXT
  5
2EA
330
2E4
100
AcDbEntity
  8
1
 62
     3
100
AcDbMText
 10
-293.9823721749453
 20
-157.2552828144374
 30
0.0
 40
3.5
 41
0.0
 71
     7
 72
     1
  1
17,5
  7
CONVERTER_11
 11
0.9999999999970619
 21
2.424068405545306E-6
 31
0.0
 73
     1
 44
0.60024009603842
  0
ENDBLK
  5
2EC
330
2E4
100
AcDbEntity
  8
0
100
AcDbBlockEnd
  0
BLOCK
  5
2F6
330
2EF
100
AcDbEntity
  8
0
100
AcDbBlockBegin
  2
*D22
 70
     1
 10
0.0
 20
0.0
 30
0.0
  3
*D22
  1

  0
LINE
  5
2F0
330
2EF
100
AcDbEntity
  8
1
  6
Continuous
 62
     2
100
AcDbLine
 10
-370.2499996356328
 20
-149.1052828144374
 30
0.0
 11
-370.2499996356328
 21
-84.89472241075187
 31
0.0
  0
LINE
  5
2F1
330
2EF
100
AcDbEntity
  8
1
  6
Continuous
 62
     2
100
AcDbLine
 10
-319.5499996356314
 20
-149.1052828144374
 30
0.0
 11
-371.7499996356328
 21
-149.1052828144374
 31
0.0
  0
LINE
  5
2F2
330
2EF
100
AcDbEntity
  8
1
  6
Continuous
 62
     2
100
AcDbLine
 10
-277.7465460131325
 20
-84.89472241075187
 30
0.0
 11
-371.7499996356328
 21
-84.89472241075187
 31
0.0
  0
SOLID
  5
2F3
330
2EF
100
AcDbEntity
  8
1
 62
     2
100
AcDbTrace
 10
-370.7107833771886
 20
-145.6052828144374
 30
0.0
 11
-369.7892158940769
 21
-145.6052828144374
 31
0.0
 12
-370.2499996356328
 22
-149.1052828144374
 32
0.0
 13
-370.2499996356328
 23
-149.1052828144374
 33
0.0
  0
SOLID
  5
2F4
330
2EF
100
AcDbEntity
  8
1
 62
     2
100
AcDbTrace
 10
-369.7892158940769
 20
-88.39472241075187
 30
0.0
 11
-370.7107833771886
 21
-88.39472241075187
 31
0.0
 12
-370.2499996356328
 22
-84.89472241075187
 32
0.0
 13
-370.2499996356328
 23
-84.89472241075187
 33
0.0
  0
MTEXT
  5
2F5
330
2EF
100
AcDbEntity
  8
1
 62
     3
100
AcDbMText
 10
-372.0999996356328
 20
-122.056936477133
 30
0.0
 40
3.5
 41
0.0
 71
     7
 72
     1
  1
64,21
  7
CONVERTER_11
 11
0.0
 21
1.0
 31
0.0
 73
     1
 44
0.60024009603842
  0
ENDBLK
  5
2F7
330
2EF
100
AcDbEntity
  8
0
100
AcDbBlockEnd
  0
BLOCK
  5
300
330
2F9
100
AcDbEntity
  8
0
100
AcDbBlockBegin
  2
*D23
 70
     1
 10
0.0
 20
0.0
 30
0.0
  3
*D23
  1

  0
LINE
  5
2FA
330
2F9
100
AcDbEntity
  8
1
  6
Continuous
 62
     2
100
AcDbLine
 10
-362.2499996356328
 20
-143.3052828144374
 30
0.0
 11
-362.2499996356328
 21
-84.89472241075187
 31
0.0
  0
LINE
  5
2FB
330
2F9
100
AcDbEntity
  8
1
  6
Continuous
 62
     2
100
AcDbLine
 10
-280.7499996356315
 20
-143.3052828144374
 30
0.0
 11
-363.7499996356328
 21
-143.3052828144374
 31
0.0
  0
LINE
  5
2FC
330
2F9
100
AcDbEntity
  8
1
  6
Continuous
 62
     2
100
AcDbLine
 10
-277.7465460131325
 20
-84.89472241075187
 30
0.0
 11
-363.7499996356328
 21
-84.89472241075187
 31
0.0
  0
SOLID
  5
2FD
330
2F9
100
AcDbEntity
  8
1
 62
     2
100
AcDbTrace
 10
-362.7107833771886
 20
-139.8052828144374
 30
0.0
 11
-361.7892158940769
 21
-139.8052828144374
 31
0.0
 12
-362.2499996356328
 22
-143.3052828144374
 32
0.0
 13
-362.2499996356328
 23
-143.3052828144374
 33
0.0
  0
SOLID
  5
2FE
330
2F9
100
AcDbEntity
  8
1
 62
     2
100
AcDbTrace
 10
-361.7892158940769
 20
-88.39472241075187
 30
0.0
 11
-362.7107833771886
 21
-88.39472241075187
 31
0.0
 12
-362.2499996356328
 22
-84.89472241075187
 32
0.0
 13
-362.2499996356328
 23
-84.89472241075187
 33
0.0
  0
MTEXT
  5
2FF
330
2F9
100
AcDbEntity
  8
1
 62
     3
100
AcDbMText
 10
-364.0999996356328
 20
-117.0859305749776
 30
0.0
 40
3.5
 41
0.0
 71
     7
 72
     1
  1
58,41
  7
CONVERTER_11
 11
0.0
 21
1.0
 31
0.0
 73
     1
 44
0.60024009603842
  0
ENDBLK
  5
301
330
2F9
100
AcDbEntity
  8
0
100
AcDbBlockEnd
  0
ENDSEC
  0
SECTION
  2
ENTITIES
  0
INSERT
  5
86
330
1F
100
AcDbEntity
  8
1
100
AcDbBlockReference
  2
1
 10
0.0
 20
0.0
 30
0.0
  0
ENDSEC
  0
SECTION
  2
OBJECTS
  0
DICTIONARY
  5
C
330
0
100
AcDbDictionary
281
     1
  3
ACAD_GROUP
350
D
  3
ACAD_LAYOUT
350
1A
  3
ACAD_MATERIAL
350
3B
  3
ACAD_MLEADERSTYLE
350
463
  3
ACAD_MLINESTYLE
350
17
  3
ACAD_PLOTSETTINGS
350
19
  3
ACAD_PLOTSTYLENAME
350
E
  3
ACAD_TABLESTYLE
350
462
  3
ACAD_VISUALSTYLE
350
2A
  0
DICTIONARY
  5
D
102
{ACAD_REACTORS
330
C
102
}
330
C
100
AcDbDictionary
281
     1
  0
DICTIONARY
  5
1A
102
{ACAD_REACTORS
330
C
102
}
330
C
100
AcDbDictionary
281
     1
  3
Layout1
350
1E
  3
Layout2
350
26
  3
Model
350
22
  0
DICTIONARY
  5
3B
102
{ACAD_REACTORS
330
C
102
}
330
C
100
AcDbDictionary
281
     1
  3
ByBlock
350
3D
  3
ByLayer
350
3C
  3
Global
350
3E
  0
DICTIONARY
  5
463
102
{ACAD_REACTORS
330
C
102
}
330
C
100
AcDbDictionary
281
     1
  0
DICTIONARY
  5
17
102
{ACAD_REACTORS
330
C
102
}
330
C
100
AcDbDictionary
281
     1
  3
Standard
350
18
  0
DICTIONARY
  5
19
102
{ACAD_REACTORS
330
C
102
}
330
C
100
AcDbDictionary
281
     1
  0
ACDBDICTIONARYWDFLT
  5
E
102
{ACAD_REACTORS
330
C
102
}
330
C
100
AcDbDictionary
281
     1
  3
Normal
350
F
100
AcDbDictionaryWithDefault
340
F
  0
DICTIONARY
  5
462
102
{ACAD_REACTORS
330
C
102
}
330
C
100
AcDbDictionary
281
     1
  0
DICTIONARY
  5
2A
102
{ACAD_REACTORS
330
C
102
}
330
C
100
AcDbDictionary
281
     1
  3
2dWireframe
350
2F
  3
3D Hidden
350
31
  3
3dWireframe
350
30
  3
Basic
350
32
  3
Brighten
350
36
  3
ColorChange
350
3A
  3
Conceptual
350
34
  3
Dim
350
35
  3
Facepattern
350
39
  3
Flat
350
2B
  3
FlatWithEdges
350
2C
  3
Gouraud
350
2D
  3
GouraudWithEdges
350
2E
  3
Linepattern
350
38
  3
Realistic
350
33
  3
Thicken
350
37
  0
LAYOUT
  5
1E
102
{ACAD_REACTORS
330
1A
102
}
330
1A
100
AcDbPlotSettings
  1

  2
none_device
  4

  6

 40
0.0
 41
0.0
 42
0.0
 43
0.0
 44
0.0
 45
0.0
 46
0.0
 47
0.0
 48
0.0
 49
0.0
140
0.0
141
0.0
142
1.0
143
1.0
 70
   688
 72
     0
 73
     0
 74
     5
  7

 75
    16
 76
     0
 77
     2
 78
   300
147
1.0
148
0.0
149
0.0
100
AcDbLayout
  1
Layout1
 70
     1
 71
     1
 10
0.0
 20
0.0
 11
12.0
 21
9.0
 12
0.0
 22
0.0
 32
0.0
 14
1.00000000000000E+20
 24
1.00000000000000E+20
 34
1.00000000000000E+20
 15
-1.00000000000000E+20
 25
-1.00000000000000E+20
 35
-1.00000000000000E+20
146
0.0
 13
0.0
 23
0.0
 33
0.0
 16
1.0
 26
0.0
 36
0.0
 17
0.0
 27
1.0
 37
0.0
 76
     0
330
1B
  0
LAYOUT
  5
26
102
{ACAD_REACTORS
330
1A
102
}
330
1A
100
AcDbPlotSettings
  1

  2
none_device
  4

  6

 40
0.0
 41
0.0
 42
0.0
 43
0.0
 44
0.0
 45
0.0
 46
0.0
 47
0.0
 48
0.0
 49
0.0
140
0.0
141
0.0
142
1.0
143
1.0
 70
   688
 72
     0
 73
     0
 74
     5
  7

 75
    16
 76
     0
 77
     2
 78
   300
147
1.0
148
0.0
149
0.0
100
AcDbLayout
  1
Layout2
 70
     1
 71
     2
 10
0.0
 20
0.0
 11
0.0
 21
0.0
 12
0.0
 22
0.0
 32
0.0
 14
0.0
 24
0.0
 34
0.0
 15
0.0
 25
0.0
 35
0.0
146
0.0
 13
0.0
 23
0.0
 33
0.0
 16
1.0
 26
0.0
 36
0.0
 17
0.0
 27
1.0
 37
0.0
 76
     0
330
23
  0
LAYOUT
  5
22
102
{ACAD_REACTORS
330
1A
102
}
330
1A
100
AcDbPlotSettings
  1

  2
none_device
  4

  6

 40
0.0
 41
0.0
 42
0.0
 43
0.0
 44
0.0
 45
0.0
 46
0.0
 47
0.0
 48
0.0
 49
0.0
140
0.0
141
0.0
142
1.0
143
1.0
 70
  1712
 72
     0
 73
     0
 74
     0
  7

 75
     0
 76
     0
 77
     2
 78
   300
147
1.0
148
0.0
149
0.0
100
AcDbLayout
  1
Model
 70
     1
 71
     0
 10
0.0
 20
0.0
 11
12.0
 21
9.0
 12
0.0
 22
0.0
 32
0.0
 14
-415.499999999989
 24
-267.0000000000051
 34
0.0
 15
-118.4999999999909
 25
-57.000000000005
 35
0.0
146
0.0
 13
0.0
 23
0.0
 33
0.0
 16
1.0
 26
0.0
 36
0.0
 17
0.0
 27
1.0
 37
0.0
 76
     0
330
1F
331
29
  0
MATERIAL
  5
3D
102
{ACAD_REACTORS
330
3B
102
}
102
{ACAD_XDICTIONARY
360
45E
102
}
330
3B
100
AcDbMaterial
  1
ByBlock
  0
MATERIAL
  5
3C
102
{ACAD_REACTORS
330
3B
102
}
102
{ACAD_XDICTIONARY
360
45C
102
}
330
3B
100
AcDbMaterial
  1
ByLayer
  0
MATERIAL
  5
3E
102
{ACAD_REACTORS
330
3B
102
}
102
{ACAD_XDICTIONARY
360
460
102
}
330
3B
100
AcDbMaterial
  1
Global
  0
MLINESTYLE
  5
18
102
{ACAD_REACTORS
330
17
102
}
330
17
100
AcDbMlineStyle
  2
Standard
 70
     0
  3

 62
   256
 51
90.0
 52
90.0
 71
     2
 49
0.5
 62
   256
  6
BYLAYER
 49
-0.5
 62
   256
  6
BYLAYER
  0
ACDBPLACEHOLDER
  5
F
102
{ACAD_REACTORS
330
E
102
}
330
E
  0
VISUALSTYLE
  5
2F
102
{ACAD_REACTORS
330
2A
102
}
102
{ACAD_XDICTIONARY
360
444
102
}
330
2A
100
AcDbVisualStyle
  2
2dWireframe
 70
     4
 71
     0
 72
     2
 73
     0
 90
        0
 40
-0.6
 41
-30.0
 62
     5
 63
     7
421
 16777215
 74
     1
 91
        4
 64
     7
 65
   257
 75
     1
175
     1
 42
1.0
 92
        0
 66
   257
 43
1.0
 76
     1
 77
     6
 78
     2
 67
     7
 79
     5
170
     0
171
     0
290
     0
174
     0
 93
        1
 44
0.0
173
     0
291
     0
 45
0.0
1001
ACAD
1000
AcDbSavedByObjectVersion
1070
     0
  0
VISUALSTYLE
  5
31
102
{ACAD_REACTORS
330
2A
102
}
102
{ACAD_XDICTIONARY
360
448
102
}
330
2A
100
AcDbVisualStyle
  2
3D Hidden
 70
     6
 71
     1
 72
     2
 73
     2
 90
        0
 40
-0.6
 41
-30.0
 62
     5
 63
     7
421
 16777215
 74
     2
 91
        2
 64
     7
 65
   257
 75
     2
175
     1
 42
40.0
 92
        0
 66
   257
 43
1.0
 76
     1
 77
     6
 78
     2
 67
     7
 79
     3
170
     0
171
     0
290
     0
174
     0
 93
        1
 44
0.0
173
     0
291
     0
 45
0.0
1001
ACAD
1000
AcDbSavedByObjectVersion
1070
     0
  0
VISUALSTYLE
  5
30
102
{ACAD_REACTORS
330
2A
102
}
102
{ACAD_XDICTIONARY
360
446
102
}
330
2A
100
AcDbVisualStyle
  2
3dWireframe
 70
     5
 71
     0
 72
     2
 73
     0
 90
        0
 40
-0.6
 41
-30.0
 62
     5
 63
     7
421
 16777215
 74
     1
 91
        4
 64
     7
 65
   257
 75
     1
175
     1
 42
1.0
 92
        0
 66
   257
 43
1.0
 76
     1
 77
     6
 78
     2
 67
     7
 79
     5
170
     0
171
     0
290
     0
174
     0
 93
        1
 44
0.0
173
     0
291
     0
 45
0.0
1001
ACAD
1000
AcDbSavedByObjectVersion
1070
     0
  0
VISUALSTYLE
  5
32
102
{ACAD_REACTORS
330
2A
102
}
102
{ACAD_XDICTIONARY
360
44A
102
}
330
2A
100
AcDbVisualStyle
  2
Basic
 70
     7
 71
     1
 72
     0
 73
     1
 90
        0
 40
-0.6
 41
-30.0
 62
     5
 63
     7
421
 16777215
 74
     0
 91
        4
 64
     7
 65
   257
 75
     1
175
     1
 42
1.0
 92
        8
 66
     7
 43
1.0
 76
     1
 77
     6
 78
     2
 67
     7
 79
     5
170
     0
171
     0
290
     0
174
     0
 93
        1
 44
0.0
173
     0
291
     1
 45
0.0
1001
ACAD
1000
AcDbSavedByObjectVersion
1070
     0
  0
VISUALSTYLE
  5
36
102
{ACAD_REACTORS
330
2A
102
}
102
{ACAD_XDICTIONARY
360
452
102
}
330
2A
100
AcDbVisualStyle
  2
Brighten
 70
    12
 71
     2
 72
     2
 73
     0
 90
        0
 40
-0.6
 41
-30.0
 62
     5
 63
     7
421
 16777215
 74
     1
 91
        4
 64
     7
 65
   257
 75
     1
175
     1
 42
1.0
 92
        8
 66
     7
 43
1.0
 76
     1
 77
     6
 78
     2
 67
     7
 79
     5
170
     0
171
     0
290
     0
174
     0
 93
        1
 44
50.0
173
     0
291
     1
 45
0.0
1001
ACAD
1000
AcDbSavedByObjectVersion
1070
     0
  0
VISUALSTYLE
  5
3A
102
{ACAD_REACTORS
330
2A
102
}
102
{ACAD_XDICTIONARY
360
45A
102
}
330
2A
100
AcDbVisualStyle
  2
ColorChange
 70
    16
 71
     2
 72
     2
 73
     3
 90
        0
 40
-0.6
 41
-30.0
 62
     5
 63
     8
421
  8421504
 74
     1
 91
        4
 64
     7
 65
   257
 75
     1
175
     1
 42
1.0
 92
        8
 66
     8
424
  8421504
 43
1.0
 76
     1
 77
     6
 78
     2
 67
     7
 79
     5
170
     0
171
     0
290
     0
174
     0
 93
        1
 44
0.0
173
     0
291
     1
 45
0.0
1001
ACAD
1000
AcDbSavedByObjectVersion
1070
     0
  0
VISUALSTYLE
  5
34
102
{ACAD_REACTORS
330
2A
102
}
102
{ACAD_XDICTIONARY
360
44E
102
}
330
2A
100
AcDbVisualStyle
  2
Conceptual
 70
     9
 71
     3
 72
     2
 73
     0
 90
        0
 40
-0.6
 41
-30.0
 62
     5
 63
     7
421
 16777215
 74
     2
 91
        2
 64
     7
 65
   257
 75
     1
175
     1
 42
40.0
 92
        8
 66
     7
 43
1.0
 76
     1
 77
     6
 78
     2
 67
     7
 79
     3
170
     0
171
     0
290
     0
174
     0
 93
        1
 44
0.0
173
     0
291
     0
 45
0.0
1001
ACAD
1000
AcDbSavedByObjectVersion
1070
     0
  0
VISUALSTYLE
  5
35
102
{ACAD_REACTORS
330
2A
102
}
102
{ACAD_XDICTIONARY
360
450
102
}
330
2A
100
AcDbVisualStyle
  2
Dim
 70
    11
 71
     2
 72
     2
 73
     0
 90
        0
 40
-0.6
 41
-30.0
 62
     5
 63
     7
421
 16777215
 74
     1
 91
        4
 64
     7
 65
   257
 75
     1
175
     1
 42
1.0
 92
        8
 66
     7
 43
1.0
 76
     1
 77
     6
 78
     2
 67
     7
 79
     5
170
     0
171
     0
290
     0
174
     0
 93
        1
 44
-50.0
173
     0
291
     1
 45
0.0
1001
ACAD
1000
AcDbSavedByObjectVersion
1070
     0
  0
VISUALSTYLE
  5
39
102
{ACAD_REACTORS
330
2A
102
}
102
{ACAD_XDICTIONARY
360
458
102
}
330
2A
100
AcDbVisualStyle
  2
Facepattern
 70
    15
 71
     2
 72
     2
 73
     0
 90
        0
 40
-0.6
 41
-30.0
 62
     5
 63
     7
421
 16777215
 74
     1
 91
        4
 64
     7
 65
   257
 75
     1
175
     1
 42
1.0
 92
        8
 66
     7
 43
1.0
 76
     1
 77
     6
 78
     2
 67
     7
 79
     5
170
     0
171
     0
290
     0
174
     0
 93
        1
 44
0.0
173
     0
291
     1
 45
0.0
1001
ACAD
1000
AcDbSavedByObjectVersion
1070
     0
  0
VISUALSTYLE
  5
2B
102
{ACAD_REACTORS
330
2A
102
}
102
{ACAD_XDICTIONARY
360
43C
102
}
330
2A
100
AcDbVisualStyle
  2
Flat
 70
     0
 71
     2
 72
     1
 73
     1
 90
        2
 40
-0.6
 41
30.0
 62
     5
 63
     7
421
 16777215
 74
     0
 91
        4
 64
     7
 65
   257
 75
     1
175
     1
 42
1.0
 92
        8
 66
     7
 43
1.0
 76
     1
 77
     6
 78
     2
 67
     7
 79
     5
170
     0
171
     0
290
     0
174
     0
 93
       13
 44
0.0
173
     0
291
     1
 45
0.0
1001
ACAD
1000
AcDbSavedByObjectVersion
1070
     0
  0
VISUALSTYLE
  5
2C
102
{ACAD_REACTORS
330
2A
102
}
102
{ACAD_XDICTIONARY
360
43E
102
}
330
2A
100
AcDbVisualStyle
  2
FlatWithEdges
 70
     1
 71
     2
 72
     1
 73
     1
 90
        2
 40
-0.6
 41
30.0
 62
     5
 63
     7
421
 16777215
 74
     1
 91
        4
 64
     7
 65
   257
 75
     1
175
     1
 42
1.0
 92
        0
 66
   257
 43
1.0
 76
     1
 77
     6
 78
     2
 67
     7
 79
     5
170
     0
171
     0
290
     0
174
     0
 93
       13
 44
0.0
173
     0
291
     1
 45
0.0
1001
ACAD
1000
AcDbSavedByObjectVersion
1070
     0
  0
VISUALSTYLE
  5
2D
102
{ACAD_REACTORS
330
2A
102
}
102
{ACAD_XDICTIONARY
360
440
102
}
330
2A
100
AcDbVisualStyle
  2
Gouraud
 70
     2
 71
     2
 72
     2
 73
     1
 90
        2
 40
-0.6
 41
30.0
 62
     5
 63
     7
421
 16777215
 74
     0
 91
        4
 64
     7
 65
   257
 75
     1
175
     1
 42
1.0
 92
        0
 66
     7
 43
1.0
 76
     1
 77
     6
 78
     2
 67
     7
 79
     5
170
     0
171
     0
290
     0
174
     0
 93
       13
 44
0.0
173
     0
291
     1
 45
0.0
1001
ACAD
1000
AcDbSavedByObjectVersion
1070
     0
  0
VISUALSTYLE
  5
2E
102
{ACAD_REACTORS
330
2A
102
}
102
{ACAD_XDICTIONARY
360
442
102
}
330
2A
100
AcDbVisualStyle
  2
GouraudWithEdges
 70
     3
 71
     2
 72
     2
 73
     1
 90
        2
 40
-0.6
 41
30.0
 62
     5
 63
     7
421
 16777215
 74
     1
 91
        4
 64
     7
 65
   257
 75
     1
175
     1
 42
1.0
 92
        0
 66
   257
 43
1.0
 76
     1
 77
     6
 78
     2
 67
     7
 79
     5
170
     0
171
     0
290
     0
174
     0
 93
       13
 44
0.0
173
     0
291
     1
 45
0.0
1001
ACAD
1000
AcDbSavedByObjectVersion
1070
     0
  0
VISUALSTYLE
  5
38
102
{ACAD_REACTORS
330
2A
102
}
102
{ACAD_XDICTIONARY
360
456
102
}
330
2A
100
AcDbVisualStyle
  2
Linepattern
 70
    14
 71
     2
 72
     2
 73
     0
 90
        0
 40
-0.6
 41
-30.0
 62
     5
 63
     7
421
 16777215
 74
     1
 91
        4
 64
     7
 65
   257
 75
     7
175
     7
 42
1.0
 92
        8
 66
     7
 43
1.0
 76
     1
 77
     6
 78
     2
 67
     7
 79
     5
170
     0
171
     0
290
     0
174
     0
 93
        1
 44
0.0
173
     0
291
     1
 45
0.0
1001
ACAD
1000
AcDbSavedByObjectVersion
1070
     0
  0
VISUALSTYLE
  5
33
102
{ACAD_REACTORS
330
2A
102
}
102
{ACAD_XDICTIONARY
360
44C
102
}
330
2A
100
AcDbVisualStyle
  2
Realistic
 70
     8
 71
     2
 72
     2
 73
     0
 90
        0
 40
-0.6
 41
-30.0
 62
     5
 63
     7
421
 16777215
 74
     1
 91
        0
 64
     7
 65
   257
 75
     1
175
     1
 42
1.0
 92
        8
 66
     8
424
  7895160
 43
1.0
 76
     1
 77
     6
 78
     2
 67
     7
 79
     5
170
     0
171
     0
290
     0
174
     0
 93
       13
 44
0.0
173
     0
291
     0
 45
0.0
1001
ACAD
1000
AcDbSavedByObjectVersion
1070
     0
  0
VISUALSTYLE
  5
37
102
{ACAD_REACTORS
330
2A
102
}
102
{ACAD_XDICTIONARY
360
454
102
}
330
2A
100
AcDbVisualStyle
  2
Thicken
 70
    13
 71
     2
 72
     2
 73
     0
 90
        0
 40
-0.6
 41
-30.0
 62
     5
 63
     7
421
 16777215
 74
     1
 91
        4
 64
     7
 65
   257
 75
     1
175
     1
 42
1.0
 92
       12
 66
     7
 43
1.0
 76
     1
 77
     6
 78
     2
 67
     7
 79
     5
170
     0
171
     0
290
     0
174
     0
 93
        1
 44
0.0
173
     0
291
     1
 45
0.0
1001
ACAD
1000
AcDbSavedByObjectVersion
1070
     0
  0
DICTIONARY
  5
45E
330
3D
100
AcDbDictionary
280
     1
281
     1
  3
ACAD_XREC_ROUNDTRIP
360
45F
  0
DICTIONARY
  5
45C
330
3C
100
AcDbDictionary
280
     1
281
     1
  3
ACAD_XREC_ROUNDTRIP
360
45D
  0
DICTIONARY
  5
460
330
3E
100
AcDbDictionary
280
     1
281
     1
  3
ACAD_XREC_ROUNDTRIP
360
461
  0
DICTIONARY
  5
444
330
2F
100
AcDbDictionary
280
     1
281
     1
  3
ACAD_XREC_ROUNDTRIP
360
445
  0
DICTIONARY
  5
448
330
31
100
AcDbDictionary
280
     1
281
     1
  3
ACAD_XREC_ROUNDTRIP
360
449
  0
DICTIONARY
  5
446
330
30
100
AcDbDictionary
280
     1
281
     1
  3
ACAD_XREC_ROUNDTRIP
360
447
  0
DICTIONARY
  5
44A
330
32
100
AcDbDictionary
280
     1
281
     1
  3
ACAD_XREC_ROUNDTRIP
360
44B
  0
DICTIONARY
  5
452
330
36
100
AcDbDictionary
280
     1
281
     1
  3
ACAD_XREC_ROUNDTRIP
360
453
  0
DICTIONARY
  5
45A
330
3A
100
AcDbDictionary
280
     1
281
     1
  3
ACAD_XREC_ROUNDTRIP
360
45B
  0
DICTIONARY
  5
44E
330
34
100
AcDbDictionary
280
     1
281
     1
  3
ACAD_XREC_ROUNDTRIP
360
44F
  0
DICTIONARY
  5
450
330
35
100
AcDbDictionary
280
     1
281
     1
  3
ACAD_XREC_ROUNDTRIP
360
451
  0
DICTIONARY
  5
458
330
39
100
AcDbDictionary
280
     1
281
     1
  3
ACAD_XREC_ROUNDTRIP
360
459
  0
DICTIONARY
  5
43C
330
2B
100
AcDbDictionary
280
     1
281
     1
  3
ACAD_XREC_ROUNDTRIP
360
43D
  0
DICTIONARY
  5
43E
330
2C
100
AcDbDictionary
280
     1
281
     1
  3
ACAD_XREC_ROUNDTRIP
360
43F
  0
DICTIONARY
  5
440
330
2D
100
AcDbDictionary
280
     1
281
     1
  3
ACAD_XREC_ROUNDTRIP
360
441
  0
DICTIONARY
  5
442
330
2E
100
AcDbDictionary
280
     1
281
     1
  3
ACAD_XREC_ROUNDTRIP
360
443
  0
DICTIONARY
  5
456
330
38
100
AcDbDictionary
280
     1
281
     1
  3
ACAD_XREC_ROUNDTRIP
360
457
  0
DICTIONARY
  5
44C
330
33
100
AcDbDictionary
280
     1
281
     1
  3
ACAD_XREC_ROUNDTRIP
360
44D
  0
DICTIONARY
  5
454
330
37
100
AcDbDictionary
280
     1
281
     1
  3
ACAD_XREC_ROUNDTRIP
360
455
  0
XRECORD
  5
45F
102
{ACAD_REACTORS
330
45E
102
}
330
45E
100
AcDbXrecord
280
     1
102
MATERIAL
148
0.0
149
0.0
149
0.0
 93
        0
 94
      127
282
     0
 72
     1
 77
     1
171
     1
175
     1
179
     1
273
     0
  0
XRECORD
  5
45D
102
{ACAD_REACTORS
330
45C
102
}
330
45C
100
AcDbXrecord
280
     1
102
MATERIAL
148
0.0
149
0.0
149
0.0
 93
        0
 94
      127
282
     0
 72
     1
 77
     1
171
     1
175
     1
179
     1
273
     0
  0
XRECORD
  5
461
102
{ACAD_REACTORS
330
460
102
}
330
460
100
AcDbXrecord
280
     1
102
MATERIAL
148
0.0
149
0.0
149
0.0
 93
        0
 94
      127
282
     0
 72
     1
 77
     1
171
     1
175
     1
179
     1
273
     0
  0
XRECORD
  5
445
102
{ACAD_REACTORS
330
444
102
}
330
444
100
AcDbXrecord
280
     1
102
RTVSPropertyOp0
 70
     1
102
RTVSPropertyOp1
 70
     1
102
RTVSPropertyOp2
 70
     1
102
RTVSPropertyOp3
 70
     1
102
RTVSPropertyOp4
 70
     1
102
RTVSPropertyOp5
 70
     1
102
RTVSPropertyOp6
 70
     1
102
RTVSPropertyOp7
 70
     1
102
RTVSPropertyOp8
 70
     1
102
RTVSPropertyOp9
 70
     1
102
RTVSPropertyOp10
 70
     1
102
RTVSPropertyOp11
 70
     1
102
RTVSPropertyOp12
 70
     1
102
RTVSPropertyOp13
 70
     1
102
RTVSPropertyOp14
 70
     1
102
RTVSPropertyOp15
 70
     1
102
RTVSPropertyOp16
 70
     1
102
RTVSPropertyOp17
 70
     1
102
RTVSPropertyOp18
 70
     1
102
RTVSPropertyOp19
 70
     1
102
RTVSPropertyOp20
 70
     1
102
RTVSPropertyOp21
 70
     1
102
RTVSPropertyOp22
 70
     1
102
RTVSPropertyOp23
 70
     1
102
RTVSPropertyOp24
 70
     1
102
RTVSPropertyOp25
 70
     1
102
RTVSPropertyOp26
 70
     1
102
RTVSPropertyOp27
 70
     1
102
RTVSPropertyOp28
 70
     1
102
RTVSPropertyOp29
 70
     1
102
RTVSPropertyOp30
 70
     1
102
RTVSPropertyOp31
 70
     1
102
RTVSPropertyOp32
 70
     1
  0
XRECORD
  5
449
102
{ACAD_REACTORS
330
448
102
}
330
448
100
AcDbXrecord
280
     1
102
RTVSPropertyOp0
 70
     1
102
RTVSPropertyOp1
 70
     1
102
RTVSPropertyOp2
 70
     1
102
RTVSPropertyOp3
 70
     1
102
RTVSPropertyOp4
 70
     1
102
RTVSPropertyOp5
 70
     1
102
RTVSPropertyOp6
 70
     1
102
RTVSPropertyOp7
 70
     1
102
RTVSPropertyOp8
 70
     1
102
RTVSPropertyOp9
 70
     1
102
RTVSPropertyOp10
 70
     1
102
RTVSPropertyOp11
 70
     1
102
RTVSPropertyOp12
 70
     1
102
RTVSPropertyOp13
 70
     1
102
RTVSPropertyOp14
 70
     1
102
RTVSPropertyOp15
 70
     1
102
RTVSPropertyOp16
 70
     1
102
RTVSPropertyOp17
 70
     1
102
RTVSPropertyOp18
 70
     1
102
RTVSPropertyOp19
 70
     1
102
RTVSPropertyOp20
 70
     1
102
RTVSPropertyOp21
 70
     1
102
RTVSPropertyOp22
 70
     1
102
RTVSPropertyOp23
 70
     1
102
RTVSPropertyOp24
 70
     1
102
RTVSPropertyOp25
 70
     1
102
RTVSPropertyOp26
 70
     1
102
RTVSPropertyOp27
 70
     1
102
RTVSPropertyOp28
 70
     1
102
RTVSPropertyOp29
 70
     1
102
RTVSPropertyOp30
 70
     1
102
RTVSPropertyOp31
 70
     1
102
RTVSPropertyOp32
 70
     1
  0
XRECORD
  5
447
102
{ACAD_REACTORS
330
446
102
}
330
446
100
AcDbXrecord
280
     1
102
RTVSPropertyOp0
 70
     1
102
RTVSPropertyOp1
 70
     1
102
RTVSPropertyOp2
 70
     1
102
RTVSPropertyOp3
 70
     1
102
RTVSPropertyOp4
 70
     1
102
RTVSPropertyOp5
 70
     1
102
RTVSPropertyOp6
 70
     1
102
RTVSPropertyOp7
 70
     1
102
RTVSPropertyOp8
 70
     1
102
RTVSPropertyOp9
 70
     1
102
RTVSPropertyOp10
 70
     1
102
RTVSPropertyOp11
 70
     1
102
RTVSPropertyOp12
 70
     1
102
RTVSPropertyOp13
 70
     1
102
RTVSPropertyOp14
 70
     1
102
RTVSPropertyOp15
 70
     1
102
RTVSPropertyOp16
 70
     1
102
RTVSPropertyOp17
 70
     1
102
RTVSPropertyOp18
 70
     1
102
RTVSPropertyOp19
 70
     1
102
RTVSPropertyOp20
 70
     1
102
RTVSPropertyOp21
 70
     1
102
RTVSPropertyOp22
 70
     1
102
RTVSPropertyOp23
 70
     1
102
RTVSPropertyOp24
 70
     1
102
RTVSPropertyOp25
 70
     1
102
RTVSPropertyOp26
 70
     1
102
RTVSPropertyOp27
 70
     1
102
RTVSPropertyOp28
 70
     1
102
RTVSPropertyOp29
 70
     1
102
RTVSPropertyOp30
 70
     1
102
RTVSPropertyOp31
 70
     1
102
RTVSPropertyOp32
 70
     1
  0
XRECORD
  5
44B
102
{ACAD_REACTORS
330
44A
102
}
330
44A
100
AcDbXrecord
280
     1
102
RTVSPropertyOp0
 70
     1
102
RTVSPropertyOp1
 70
     1
102
RTVSPropertyOp2
 70
     1
102
RTVSPropertyOp3
 70
     1
102
RTVSPropertyOp4
 70
     1
102
RTVSPropertyOp5
 70
     1
102
RTVSPropertyOp6
 70
     1
102
RTVSPropertyOp7
 70
     1
102
RTVSPropertyOp8
 70
     1
102
RTVSPropertyOp9
 70
     1
102
RTVSPropertyOp10
 70
     1
102
RTVSPropertyOp11
 70
     1
102
RTVSPropertyOp12
 70
     1
102
RTVSPropertyOp13
 70
     1
102
RTVSPropertyOp14
 70
     1
102
RTVSPropertyOp15
 70
     1
102
RTVSPropertyOp16
 70
     1
102
RTVSPropertyOp17
 70
     1
102
RTVSPropertyOp18
 70
     1
102
RTVSPropertyOp19
 70
     1
102
RTVSPropertyOp20
 70
     1
102
RTVSPropertyOp21
 70
     1
102
RTVSPropertyOp22
 70
     1
102
RTVSPropertyOp23
 70
     1
102
RTVSPropertyOp24
 70
     1
102
RTVSPropertyOp25
 70
     1
102
RTVSPropertyOp26
 70
     1
102
RTVSPropertyOp27
 70
     1
102
RTVSPropertyOp28
 70
     1
102
RTVSPropertyOp29
 70
     1
102
RTVSPropertyOp30
 70
     1
102
RTVSPropertyOp31
 70
     1
102
RTVSPropertyOp32
 70
     1
  0
XRECORD
  5
453
102
{ACAD_REACTORS
330
452
102
}
330
452
100
AcDbXrecord
280
     1
102
RTVSPropertyOp0
 70
     1
102
RTVSPropertyOp1
 70
     1
102
RTVSPropertyOp2
 70
     1
102
RTVSPropertyOp3
 70
     1
102
RTVSPropertyOp4
 70
     1
102
RTVSPropertyOp5
 70
     1
102
RTVSPropertyOp6
 70
     1
102
RTVSPropertyOp7
 70
     1
102
RTVSPropertyOp8
 70
     1
102
RTVSPropertyOp9
 70
     1
102
RTVSPropertyOp10
 70
     1
102
RTVSPropertyOp11
 70
     1
102
RTVSPropertyOp12
 70
     1
102
RTVSPropertyOp13
 70
     1
102
RTVSPropertyOp14
 70
     1
102
RTVSPropertyOp15
 70
     1
102
RTVSPropertyOp16
 70
     1
102
RTVSPropertyOp17
 70
     1
102
RTVSPropertyOp18
 70
     1
102
RTVSPropertyOp19
 70
     1
102
RTVSPropertyOp20
 70
     1
102
RTVSPropertyOp21
 70
     1
102
RTVSPropertyOp22
 70
     1
102
RTVSPropertyOp23
 70
     1
102
RTVSPropertyOp24
 70
     1
102
RTVSPropertyOp25
 70
     1
102
RTVSPropertyOp26
 70
     1
102
RTVSPropertyOp27
 70
     1
102
RTVSPropertyOp28
 70
     1
102
RTVSPropertyOp29
 70
     1
102
RTVSPropertyOp30
 70
     1
102
RTVSPropertyOp31
 70
     1
102
RTVSPropertyOp32
 70
     1
  0
XRECORD
  5
45B
102
{ACAD_REACTORS
330
45A
102
}
330
45A
100
AcDbXrecord
280
     1
102
RTVSPropertyOp0
 70
     1
102
RTVSPropertyOp1
 70
     1
102
RTVSPropertyOp2
 70
     1
102
RTVSPropertyOp3
 70
     1
102
RTVSPropertyOp4
 70
     1
102
RTVSPropertyOp5
 70
     1
102
RTVSPropertyOp6
 70
     1
102
RTVSPropertyOp7
 70
     1
102
RTVSPropertyOp8
 70
     1
102
RTVSPropertyOp9
 70
     1
102
RTVSPropertyOp10
 70
     1
102
RTVSPropertyOp11
 70
     1
102
RTVSPropertyOp12
 70
     1
102
RTVSPropertyOp13
 70
     1
102
RTVSPropertyOp14
 70
     1
102
RTVSPropertyOp15
 70
     1
102
RTVSPropertyOp16
 70
     1
102
RTVSPropertyOp17
 70
     1
102
RTVSPropertyOp18
 70
     1
102
RTVSPropertyOp19
 70
     1
102
RTVSPropertyOp20
 70
     1
102
RTVSPropertyOp21
 70
     1
102
RTVSPropertyOp22
 70
     1
102
RTVSPropertyOp23
 70
     1
102
RTVSPropertyOp24
 70
     1
102
RTVSPropertyOp25
 70
     1
102
RTVSPropertyOp26
 70
     1
102
RTVSPropertyOp27
 70
     1
102
RTVSPropertyOp28
 70
     1
102
RTVSPropertyOp29
 70
     1
102
RTVSPropertyOp30
 70
     1
102
RTVSPropertyOp31
 70
     1
102
RTVSPropertyOp32
 70
     1
  0
XRECORD
  5
44F
102
{ACAD_REACTORS
330
44E
102
}
330
44E
100
AcDbXrecord
280
     1
102
RTVSPropertyOp0
 70
     1
102
RTVSPropertyOp1
 70
     1
102
RTVSPropertyOp2
 70
     1
102
RTVSPropertyOp3
 70
     1
102
RTVSPropertyOp4
 70
     1
102
RTVSPropertyOp5
 70
     1
102
RTVSPropertyOp6
 70
     1
102
RTVSPropertyOp7
 70
     1
102
RTVSPropertyOp8
 70
     1
102
RTVSPropertyOp9
 70
     1
102
RTVSPropertyOp10
 70
     1
102
RTVSPropertyOp11
 70
     1
102
RTVSPropertyOp12
 70
     1
102
RTVSPropertyOp13
 70
     1
102
RTVSPropertyOp14
 70
     1
102
RTVSPropertyOp15
 70
     1
102
RTVSPropertyOp16
 70
     1
102
RTVSPropertyOp17
 70
     1
102
RTVSPropertyOp18
 70
     1
102
RTVSPropertyOp19
 70
     1
102
RTVSPropertyOp20
 70
     1
102
RTVSPropertyOp21
 70
     1
102
RTVSPropertyOp22
 70
     1
102
RTVSPropertyOp23
 70
     1
102
RTVSPropertyOp24
 70
     1
102
RTVSPropertyOp25
 70
     1
102
RTVSPropertyOp26
 70
     1
102
RTVSPropertyOp27
 70
     1
102
RTVSPropertyOp28
 70
     1
102
RTVSPropertyOp29
 70
     1
102
RTVSPropertyOp30
 70
     1
102
RTVSPropertyOp31
 70
     1
102
RTVSPropertyOp32
 70
     1
  0
XRECORD
  5
451
102
{ACAD_REACTORS
330
450
102
}
330
450
100
AcDbXrecord
280
     1
102
RTVSPropertyOp0
 70
     1
102
RTVSPropertyOp1
 70
     1
102
RTVSPropertyOp2
 70
     1
102
RTVSPropertyOp3
 70
     1
102
RTVSPropertyOp4
 70
     1
102
RTVSPropertyOp5
 70
     1
102
RTVSPropertyOp6
 70
     1
102
RTVSPropertyOp7
 70
     1
102
RTVSPropertyOp8
 70
     1
102
RTVSPropertyOp9
 70
     1
102
RTVSPropertyOp10
 70
     1
102
RTVSPropertyOp11
 70
     1
102
RTVSPropertyOp12
 70
     1
102
RTVSPropertyOp13
 70
     1
102
RTVSPropertyOp14
 70
     1
102
RTVSPropertyOp15
 70
     1
102
RTVSPropertyOp16
 70
     1
102
RTVSPropertyOp17
 70
     1
102
RTVSPropertyOp18
 70
     1
102
RTVSPropertyOp19
 70
     1
102
RTVSPropertyOp20
 70
     1
102
RTVSPropertyOp21
 70
     1
102
RTVSPropertyOp22
 70
     1
102
RTVSPropertyOp23
 70
     1
102
RTVSPropertyOp24
 70
     1
102
RTVSPropertyOp25
 70
     1
102
RTVSPropertyOp26
 70
     1
102
RTVSPropertyOp27
 70
     1
102
RTVSPropertyOp28
 70
     1
102
RTVSPropertyOp29
 70
     1
102
RTVSPropertyOp30
 70
     1
102
RTVSPropertyOp31
 70
     1
102
RTVSPropertyOp32
 70
     1
  0
XRECORD
  5
459
102
{ACAD_REACTORS
330
458
102
}
330
458
100
AcDbXrecord
280
     1
102
RTVSPropertyOp0
 70
     1
102
RTVSPropertyOp1
 70
     1
102
RTVSPropertyOp2
 70
     1
102
RTVSPropertyOp3
 70
     1
102
RTVSPropertyOp4
 70
     1
102
RTVSPropertyOp5
 70
     1
102
RTVSPropertyOp6
 70
     1
102
RTVSPropertyOp7
 70
     1
102
RTVSPropertyOp8
 70
     1
102
RTVSPropertyOp9
 70
     1
102
RTVSPropertyOp10
 70
     1
102
RTVSPropertyOp11
 70
     1
102
RTVSPropertyOp12
 70
     1
102
RTVSPropertyOp13
 70
     1
102
RTVSPropertyOp14
 70
     1
102
RTVSPropertyOp15
 70
     1
102
RTVSPropertyOp16
 70
     1
102
RTVSPropertyOp17
 70
     1
102
RTVSPropertyOp18
 70
     1
102
RTVSPropertyOp19
 70
     1
102
RTVSPropertyOp20
 70
     1
102
RTVSPropertyOp21
 70
     1
102
RTVSPropertyOp22
 70
     1
102
RTVSPropertyOp23
 70
     1
102
RTVSPropertyOp24
 70
     1
102
RTVSPropertyOp25
 70
     1
102
RTVSPropertyOp26
 70
     1
102
RTVSPropertyOp27
 70
     1
102
RTVSPropertyOp28
 70
     1
102
RTVSPropertyOp29
 70
     1
102
RTVSPropertyOp30
 70
     1
102
RTVSPropertyOp31
 70
     1
102
RTVSPropertyOp32
 70
     1
  0
XRECORD
  5
43D
102
{ACAD_REACTORS
330
43C
102
}
330
43C
100
AcDbXrecord
280
     1
102
RTVSPropertyOp0
 70
     1
102
RTVSPropertyOp1
 70
     1
102
RTVSPropertyOp2
 70
     1
102
RTVSPropertyOp3
 70
     1
102
RTVSPropertyOp4
 70
     1
102
RTVSPropertyOp5
 70
     1
102
RTVSPropertyOp6
 70
     1
102
RTVSPropertyOp7
 70
     1
102
RTVSPropertyOp8
 70
     1
102
RTVSPropertyOp9
 70
     1
102
RTVSPropertyOp10
 70
     1
102
RTVSPropertyOp11
 70
     1
102
RTVSPropertyOp12
 70
     1
102
RTVSPropertyOp13
 70
     1
102
RTVSPropertyOp14
 70
     1
102
RTVSPropertyOp15
 70
     1
102
RTVSPropertyOp16
 70
     1
102
RTVSPropertyOp17
 70
     1
102
RTVSPropertyOp18
 70
     1
102
RTVSPropertyOp19
 70
     1
102
RTVSPropertyOp20
 70
     1
102
RTVSPropertyOp21
 70
     1
102
RTVSPropertyOp22
 70
     1
102
RTVSPropertyOp23
 70
     1
102
RTVSPropertyOp24
 70
     1
102
RTVSPropertyOp25
 70
     1
102
RTVSPropertyOp26
 70
     1
102
RTVSPropertyOp27
 70
     1
102
RTVSPropertyOp28
 70
     1
102
RTVSPropertyOp29
 70
     1
102
RTVSPropertyOp30
 70
     1
102
RTVSPropertyOp31
 70
     1
102
RTVSPropertyOp32
 70
     1
  0
XRECORD
  5
43F
102
{ACAD_REACTORS
330
43E
102
}
330
43E
100
AcDbXrecord
280
     1
102
RTVSPropertyOp0
 70
     1
102
RTVSPropertyOp1
 70
     1
102
RTVSPropertyOp2
 70
     1
102
RTVSPropertyOp3
 70
     1
102
RTVSPropertyOp4
 70
     1
102
RTVSPropertyOp5
 70
     1
102
RTVSPropertyOp6
 70
     1
102
RTVSPropertyOp7
 70
     1
102
RTVSPropertyOp8
 70
     1
102
RTVSPropertyOp9
 70
     1
102
RTVSPropertyOp10
 70
     1
102
RTVSPropertyOp11
 70
     1
102
RTVSPropertyOp12
 70
     1
102
RTVSPropertyOp13
 70
     1
102
RTVSPropertyOp14
 70
     1
102
RTVSPropertyOp15
 70
     1
102
RTVSPropertyOp16
 70
     1
102
RTVSPropertyOp17
 70
     1
102
RTVSPropertyOp18
 70
     1
102
RTVSPropertyOp19
 70
     1
102
RTVSPropertyOp20
 70
     1
102
RTVSPropertyOp21
 70
     1
102
RTVSPropertyOp22
 70
     1
102
RTVSPropertyOp23
 70
     1
102
RTVSPropertyOp24
 70
     1
102
RTVSPropertyOp25
 70
     1
102
RTVSPropertyOp26
 70
     1
102
RTVSPropertyOp27
 70
     1
102
RTVSPropertyOp28
 70
     1
102
RTVSPropertyOp29
 70
     1
102
RTVSPropertyOp30
 70
     1
102
RTVSPropertyOp31
 70
     1
102
RTVSPropertyOp32
 70
     1
  0
XRECORD
  5
441
102
{ACAD_REACTORS
330
440
102
}
330
440
100
AcDbXrecord
280
     1
102
RTVSPropertyOp0
 70
     1
102
RTVSPropertyOp1
 70
     1
102
RTVSPropertyOp2
 70
     1
102
RTVSPropertyOp3
 70
     1
102
RTVSPropertyOp4
 70
     1
102
RTVSPropertyOp5
 70
     1
102
RTVSPropertyOp6
 70
     1
102
RTVSPropertyOp7
 70
     1
102
RTVSPropertyOp8
 70
     1
102
RTVSPropertyOp9
 70
     1
102
RTVSPropertyOp10
 70
     1
102
RTVSPropertyOp11
 70
     1
102
RTVSPropertyOp12
 70
     1
102
RTVSPropertyOp13
 70
     1
102
RTVSPropertyOp14
 70
     1
102
RTVSPropertyOp15
 70
     1
102
RTVSPropertyOp16
 70
     1
102
RTVSPropertyOp17
 70
     1
102
RTVSPropertyOp18
 70
     1
102
RTVSPropertyOp19
 70
     1
102
RTVSPropertyOp20
 70
     1
102
RTVSPropertyOp21
 70
     1
102
RTVSPropertyOp22
 70
     1
102
RTVSPropertyOp23
 70
     1
102
RTVSPropertyOp24
 70
     1
102
RTVSPropertyOp25
 70
     1
102
RTVSPropertyOp26
 70
     1
102
RTVSPropertyOp27
 70
     1
102
RTVSPropertyOp28
 70
     1
102
RTVSPropertyOp29
 70
     1
102
RTVSPropertyOp30
 70
     1
102
RTVSPropertyOp31
 70
     1
102
RTVSPropertyOp32
 70
     1
  0
XRECORD
  5
443
102
{ACAD_REACTORS
330
442
102
}
330
442
100
AcDbXrecord
280
     1
102
RTVSPropertyOp0
 70
     1
102
RTVSPropertyOp1
 70
     1
102
RTVSPropertyOp2
 70
     1
102
RTVSPropertyOp3
 70
     1
102
RTVSPropertyOp4
 70
     1
102
RTVSPropertyOp5
 70
     1
102
RTVSPropertyOp6
 70
     1
102
RTVSPropertyOp7
 70
     1
102
RTVSPropertyOp8
 70
     1
102
RTVSPropertyOp9
 70
     1
102
RTVSPropertyOp10
 70
     1
102
RTVSPropertyOp11
 70
     1
102
RTVSPropertyOp12
 70
     1
102
RTVSPropertyOp13
 70
     1
102
RTVSPropertyOp14
 70
     1
102
RTVSPropertyOp15
 70
     1
102
RTVSPropertyOp16
 70
     1
102
RTVSPropertyOp17
 70
     1
102
RTVSPropertyOp18
 70
     1
102
RTVSPropertyOp19
 70
     1
102
RTVSPropertyOp20
 70
     1
102
RTVSPropertyOp21
 70
     1
102
RTVSPropertyOp22
 70
     1
102
RTVSPropertyOp23
 70
     1
102
RTVSPropertyOp24
 70
     1
102
RTVSPropertyOp25
 70
     1
102
RTVSPropertyOp26
 70
     1
102
RTVSPropertyOp27
 70
     1
102
RTVSPropertyOp28
 70
     1
102
RTVSPropertyOp29
 70
     1
102
RTVSPropertyOp30
 70
     1
102
RTVSPropertyOp31
 70
     1
102
RTVSPropertyOp32
 70
     1
  0
XRECORD
  5
457
102
{ACAD_REACTORS
330
456
102
}
330
456
100
AcDbXrecord
280
     1
102
RTVSPropertyOp0
 70
     1
102
RTVSPropertyOp1
 70
     1
102
RTVSPropertyOp2
 70
     1
102
RTVSPropertyOp3
 70
     1
102
RTVSPropertyOp4
 70
     1
102
RTVSPropertyOp5
 70
     1
102
RTVSPropertyOp6
 70
     1
102
RTVSPropertyOp7
 70
     1
102
RTVSPropertyOp8
 70
     1
102
RTVSPropertyOp9
 70
     1
102
RTVSPropertyOp10
 70
     1
102
RTVSPropertyOp11
 70
     1
102
RTVSPropertyOp12
 70
     1
102
RTVSPropertyOp13
 70
     1
102
RTVSPropertyOp14
 70
     1
102
RTVSPropertyOp15
 70
     1
102
RTVSPropertyOp16
 70
     1
102
RTVSPropertyOp17
 70
     1
102
RTVSPropertyOp18
 70
     1
102
RTVSPropertyOp19
 70
     1
102
RTVSPropertyOp20
 70
     1
102
RTVSPropertyOp21
 70
     1
102
RTVSPropertyOp22
 70
     1
102
RTVSPropertyOp23
 70
     1
102
RTVSPropertyOp24
 70
     1
102
RTVSPropertyOp25
 70
     1
102
RTVSPropertyOp26
 70
     1
102
RTVSPropertyOp27
 70
     1
102
RTVSPropertyOp28
 70
     1
102
RTVSPropertyOp29
 70
     1
102
RTVSPropertyOp30
 70
     1
102
RTVSPropertyOp31
 70
     1
102
RTVSPropertyOp32
 70
     1
  0
XRECORD
  5
44D
102
{ACAD_REACTORS
330
44C
102
}
330
44C
100
AcDbXrecord
280
     1
102
RTVSPropertyOp0
 70
     1
102
RTVSPropertyOp1
 70
     1
102
RTVSPropertyOp2
 70
     1
102
RTVSPropertyOp3
 70
     1
102
RTVSPropertyOp4
 70
     1
102
RTVSPropertyOp5
 70
     1
102
RTVSPropertyOp6
 70
     1
102
RTVSPropertyOp7
 70
     1
102
RTVSPropertyOp8
 70
     1
102
RTVSPropertyOp9
 70
     1
102
RTVSPropertyOp10
 70
     1
102
RTVSPropertyOp11
 70
     1
102
RTVSPropertyOp12
 70
     1
102
RTVSPropertyOp13
 70
     1
102
RTVSPropertyOp14
 70
     1
102
RTVSPropertyOp15
 70
     1
102
RTVSPropertyOp16
 70
     1
102
RTVSPropertyOp17
 70
     1
102
RTVSPropertyOp18
 70
     1
102
RTVSPropertyOp19
 70
     1
102
RTVSPropertyOp20
 70
     1
102
RTVSPropertyOp21
 70
     1
102
RTVSPropertyOp22
 70
     1
102
RTVSPropertyOp23
 70
     1
102
RTVSPropertyOp24
 70
     1
102
RTVSPropertyOp25
 70
     1
102
RTVSPropertyOp26
 70
     1
102
RTVSPropertyOp27
 70
     1
102
RTVSPropertyOp28
 70
     1
102
RTVSPropertyOp29
 70
     1
102
RTVSPropertyOp30
 70
     1
102
RTVSPropertyOp31
 70
     1
102
RTVSPropertyOp32
 70
     1
  0
XRECORD
  5
455
102
{ACAD_REACTORS
330
454
102
}
330
454
100
AcDbXrecord
280
     1
102
RTVSPropertyOp0
 70
     1
102
RTVSPropertyOp1
 70
     1
102
RTVSPropertyOp2
 70
     1
102
RTVSPropertyOp3
 70
     1
102
RTVSPropertyOp4
 70
     1
102
RTVSPropertyOp5
 70
     1
102
RTVSPropertyOp6
 70
     1
102
RTVSPropertyOp7
 70
     1
102
RTVSPropertyOp8
 70
     1
102
RTVSPropertyOp9
 70
     1
102
RTVSPropertyOp10
 70
     1
102
RTVSPropertyOp11
 70
     1
102
RTVSPropertyOp12
 70
     1
102
RTVSPropertyOp13
 70
     1
102
RTVSPropertyOp14
 70
     1
102
RTVSPropertyOp15
 70
     1
102
RTVSPropertyOp16
 70
     1
102
RTVSPropertyOp17
 70
     1
102
RTVSPropertyOp18
 70
     1
102
RTVSPropertyOp19
 70
     1
102
RTVSPropertyOp20
 70
     1
102
RTVSPropertyOp21
 70
     1
102
RTVSPropertyOp22
 70
     1
102
RTVSPropertyOp23
 70
     1
102
RTVSPropertyOp24
 70
     1
102
RTVSPropertyOp25
 70
     1
102
RTVSPropertyOp26
 70
     1
102
RTVSPropertyOp27
 70
     1
102
RTVSPropertyOp28
 70
     1
102
RTVSPropertyOp29
 70
     1
102
RTVSPropertyOp30
 70
     1
102
RTVSPropertyOp31
 70
     1
102
RTVSPropertyOp32
 70
     1
  0
ENDSEC
  0
EOF
